Торрент файл
скачать торрент магнет ссылка Добавлен: 21 июл 2013, 20:30
Размер: 1.39 ГБ
Сидеров: 9
Личеров: 4
Статус: (salma3)
Автор

СообщениеДобавлено: 21 июл 2013, 20:30 

Не в сети
Супермодератор
Аватара пользователя
Дата регистрации:
15 фев 2012, 16:44
Возраст: 28
Спасибо: 6672 / 2146
Сообщения: 46100

Информация о фильме
Название: Приключения частного детектива
Оригинальное название: Adventures of a Private Eye
Год выхода: 01:32:00
Жанр: комедия, криминал
Режиссер: Стэнли А. Лонг / Stanley A. Long
В ролях:
Кристофер Нил, Сьюзи Кендалл, Гарри Х. Корбет, Диана Дорс
Фред Эмни, Лиз Фрайзер, Айрин Хэндл' Йен Лавендер, Джулиан Орхард, Джон Пертуи

О фильме:
Молодой человек, выдавая себя за частного детектива, ищет сексуальных приключений.



Страна: Великобритания
Продолжительность: 01:32:00
Перевод: Авторский одноголосый

Файл
Кодек: XviD
Качество: DVDRip
Видео: 7704x384 (1.83:1), 25 fps, XviD build 47 ~1941 kbps avg, 0.29 bit/pixel
Звук:
1. AC3 48 kHz; 2/0 (L,R) ch; 192.00 kbps. Rus.
Субтитры: Нет

Семпл

Код:
Общее
Полное имя                               : W:KinoПриключения частного детектива - Adventures of a Private Eye.avi
Формат                                   : AVI
Формат/Информация                        : Audio Video Interleave
Размер файла                             : 1,39 Гбайт
Продолжительность                        : 1 ч. 32 м.
Общий поток                              : 2143 Кбит/сек
Программа кодирования                    : VirtualDubMod 1.5.10.2 (build 2540/release)
Библиотека кодирования                   : VirtualDubMod build 2540/release

Видео
Идентификатор                            : 0
Формат                                   : MPEG-4 Visual
Профиль формата                          : Advanced Simple@L5
Параметр BVOP формата                    : 1
Параметр QPel формата                    : Нет
Параметр GMC формата                     : Без точки перехода
Параметр матрицы формата                 : Выборочная
Идентификатор кодека                     : XVID
Идентификатор кодека/Подсказка           : XviD
Продолжительность                        : 1 ч. 32 м.
Битрейт                                  : 1941 Кбит/сек
Ширина                                   : 704 пикселя
Высота                                   : 384 пикселя
Соотношение сторон                       : 1,85:1
Частота кадров                           : 25,000 кадров/сек
Цветовое пространство                    : YUV
Субдискретизация насыщенности            : 4:2:0
Битовая глубина                          : 8 бит
Тип развёртки                            : Прогрессивная
Метод сжатия                             : С потерями
Бит/(Пиксели*Кадры)                      : 0.287
Размер потока                            : 1,26 Гбайт (91%)
Библиотека кодирования                   : XviD 1.2.0.dev47 (UTC 2006-11-01)

Аудио
Идентификатор                            : 1
Формат                                   : AC-3
Формат/Информация                        : Audio Coding 3
Расширение режима                        : CM (complete main)
Параметр Endianness формата              : Big
Идентификатор кодека                     : 2000
Продолжительность                        : 1 ч. 32 м.
Вид битрейта                             : Постоянный
Битрейт                                  : 192 Кбит/сек
Каналы                                   : 2 канала
Расположение каналов                     : Front: L R
Частота                                  : 48,0 КГц
Битовая глубина                          : 16 бит
Метод сжатия                             : С потерями
Размер потока                            : 127 Мбайт (9%)
Выравнивание                             : Разделение по промежуткам
Продолжительность промежутка             : 40  мс. (1,00 видеокадр)
Время предзагрузки промежутка            : 500  мс.





реклама партнёра


Вернуться к началу
 Профиль Отправить личное сообщение  
 
   Похожие торренты   Автор   Торрент   Размер 
В этой теме нет новых непрочитанных сообщений. Private Gold 121: Adventures on the Lust Boat / Приключения на похотливом корабле (Ettore Buchi / Private) [2011 г., Double Penetration, Anal, Feature, 540p, WEB-DL] (Split Scenes)

salma3

5 | 1

1.87 ГБ

В этой теме нет новых непрочитанных сообщений. Приключения Форда Ферлейна / The Adventures of Ford Fairlane [боевик, комедия, криминал, 1990] HDRip, Mvo

salma3

57 | 25

1.45 ГБ

В этой теме нет новых непрочитанных сообщений. Нулевой эффект / Принцип детектива Зеро / Zero Effect [триллер, драма, комедия, криминал, детектив, 1998] WEBRip 720p, Mvo+Dvo+Sub

salma3

118 | 29

4.36 ГБ

В этой теме нет новых непрочитанных сообщений. Приключения Форда Ферлейна / The Adventures of Ford Fairlane [боевик, комедия, криминал, 1990] BDRip 720p, Mvo

salma3

6 | 0

4.64 ГБ

В этой теме нет новых непрочитанных сообщений. Private Specials 153 : Share My Wife / Private Specials 153 : Моя Доступная Жена (Private) [2017 г., Gonzo, Big Ass, Big Tits,MILFs, Anal, DP, Threesome, Fetish, DVDRip]

salma3

6 | 1

994.95 МБ

В этой теме нет новых непрочитанных сообщений. Мертвец детектива Мегрэ / Maigret's Dead Man [драма, криминал, детектив, 2016] HDTVRip, Avo

salma3

1090 | 58

1.44 ГБ

В этой теме нет новых непрочитанных сообщений. Чёрный шампунь / Black Shampoo [боевик, драма, комедия, криминал, 1976] DVDRip, Avo

salma3

75 | 12

1.36 ГБ


Начать новую тему Ответить на тему  [ 1 сообщение ] 




Для Мосгорсуда, Роскомнадзора и рекламодателей:: mosgorsud-torrent[собачка]yandex.ru