Торрент файл
скачать торрент магнет ссылка Добавлен: 21 июл 2013, 20:30
Размер: 1.39 ГБ
Сидеров: 9
Личеров: 4
Статус: (salma3)
Автор

СообщениеДобавлено: 21 июл 2013, 20:30 

Не в сети
Супермодератор
Аватара пользователя
Дата регистрации:
15 фев 2012, 16:44
Возраст: 27
Спасибо: 5139 / 2089
Сообщения: 17432

Информация о фильме
Название: Приключения частного детектива
Оригинальное название: Adventures of a Private Eye
Год выхода: 01:32:00
Жанр: комедия, криминал
Режиссер: Стэнли А. Лонг / Stanley A. Long
В ролях:
Кристофер Нил, Сьюзи Кендалл, Гарри Х. Корбет, Диана Дорс
Фред Эмни, Лиз Фрайзер, Айрин Хэндл' Йен Лавендер, Джулиан Орхард, Джон Пертуи

О фильме:
Молодой человек, выдавая себя за частного детектива, ищет сексуальных приключений.



Страна: Великобритания
Продолжительность: 01:32:00
Перевод: Авторский одноголосый

Файл
Кодек: XviD
Качество: DVDRip
Видео: 7704x384 (1.83:1), 25 fps, XviD build 47 ~1941 kbps avg, 0.29 bit/pixel
Звук:
1. AC3 48 kHz; 2/0 (L,R) ch; 192.00 kbps. Rus.
Субтитры: Нет

Семпл

Код:
Общее
Полное имя                               : W:KinoПриключения частного детектива - Adventures of a Private Eye.avi
Формат                                   : AVI
Формат/Информация                        : Audio Video Interleave
Размер файла                             : 1,39 Гбайт
Продолжительность                        : 1 ч. 32 м.
Общий поток                              : 2143 Кбит/сек
Программа кодирования                    : VirtualDubMod 1.5.10.2 (build 2540/release)
Библиотека кодирования                   : VirtualDubMod build 2540/release

Видео
Идентификатор                            : 0
Формат                                   : MPEG-4 Visual
Профиль формата                          : Advanced Simple@L5
Параметр BVOP формата                    : 1
Параметр QPel формата                    : Нет
Параметр GMC формата                     : Без точки перехода
Параметр матрицы формата                 : Выборочная
Идентификатор кодека                     : XVID
Идентификатор кодека/Подсказка           : XviD
Продолжительность                        : 1 ч. 32 м.
Битрейт                                  : 1941 Кбит/сек
Ширина                                   : 704 пикселя
Высота                                   : 384 пикселя
Соотношение сторон                       : 1,85:1
Частота кадров                           : 25,000 кадров/сек
Цветовое пространство                    : YUV
Субдискретизация насыщенности            : 4:2:0
Битовая глубина                          : 8 бит
Тип развёртки                            : Прогрессивная
Метод сжатия                             : С потерями
Бит/(Пиксели*Кадры)                      : 0.287
Размер потока                            : 1,26 Гбайт (91%)
Библиотека кодирования                   : XviD 1.2.0.dev47 (UTC 2006-11-01)

Аудио
Идентификатор                            : 1
Формат                                   : AC-3
Формат/Информация                        : Audio Coding 3
Расширение режима                        : CM (complete main)
Параметр Endianness формата              : Big
Идентификатор кодека                     : 2000
Продолжительность                        : 1 ч. 32 м.
Вид битрейта                             : Постоянный
Битрейт                                  : 192 Кбит/сек
Каналы                                   : 2 канала
Расположение каналов                     : Front: L R
Частота                                  : 48,0 КГц
Битовая глубина                          : 16 бит
Метод сжатия                             : С потерями
Размер потока                            : 127 Мбайт (9%)
Выравнивание                             : Разделение по промежуткам
Продолжительность промежутка             : 40  мс. (1,00 видеокадр)
Время предзагрузки промежутка            : 500  мс.





реклама партнёра


Вернуться к началу
 Профиль Отправить личное сообщение  
 
   Похожие торренты   Автор   Торрент   Размер 
В этой теме нет новых непрочитанных сообщений. Private Specials 79: Omar's Anal Adventures In Ibiza / Private Specials 79:Анальные Приключения Омара на Ибице (Omar Galanti / Private) [2013 г., All Sex, Anal, DVDRip 396p]

friizze

11 | 13

1.64 ГБ

В этой теме нет новых непрочитанных сообщений. Tommy Bolin-Private Eyes [1976, Rock, MP3]

PriZraK

0 | 6

94.48 МБ

В этой теме нет новых непрочитанных сообщений. В маленьком техасском городке / A Small Town in Texas [боевик, драма, мелодрама, криминал, приключения, 1976] DVDRip, Avo

salma3

15 | 6

1.41 ГБ

В этой теме нет новых непрочитанных сообщений. Новые приключения старой Кристин / The New Adventures of Old Christine / 1 сезон 1-13 серии из 13 [комедия, 2006] DVDRip, Mvo [ViruseProject]

salma3

14 | 4

2.34 ГБ

В этой теме нет новых непрочитанных сообщений. Новые приключения старой Кристин / The New Adventures of Old Christine / 3 сезон 1-10 серии из 10 [комедия, 2008] DVDRip, Mvo [ViruseProject]

salma3

9 | 2

1.81 ГБ

В этой теме нет новых непрочитанных сообщений. Приключения Бриско Каунти-младшего / The Adventures of Brisco County Jr. [S01] [фантастика, вестерн, комедия, 1993-1994] DVDRip, Mvo

salma3

0 | 9

19.26 ГБ

В этой теме нет новых непрочитанных сообщений. Новые приключения старой Кристин / The New Adventures of Old Christine / 4 сезон 1-22 серии из 22 [комедия, 2008-2009] DVDRip, Mvo [ViruseProject]

salma3

15 | 4

3.97 ГБ


Начать новую тему Ответить на тему  [ 1 сообщение ] 




Для Мосгорсуда, Роскомнадзора и рекламодателей:: mosgorsud-torrent[собачка]yandex.ru