Торрент файл
скачать торрент магнет ссылка Добавлен: 21 июл 2013, 11:57
Размер: 3.58 ГБ
Сидеров: 0
Личеров: 2
Автор

СообщениеДобавлено: 21 июл 2013, 11:57 

В сети
Супермодератор
Аватара пользователя
Дата регистрации:
15 фев 2012, 16:44
Возраст: 27
Спасибо: 5139 / 2090
Сообщения: 17466

Страна: США
Жанр: триллер, ужасы
Год выпуска: 2013
Продолжительность: 01:33:56
Перевод: Любительское (одноголосое) [lord666]
Субтитры: английские
Оригинальная дорожка: английский
Главы: есть

Режиссер: Олатунде Осунсанми / Olatunde Osunsanmi
В ролях: Рада Митчелл, Стивен Мойер, Торри ДеВито, Нолан Фанк, Дейл Дикки, Гарри Дж. Ленникс, Кэйтлин Стэйси, Амл Амин, Джон Хеймс Ньютон, Светлана Меткина


Описание: В автобусе, направлявшемся в Лас-Вегас, совершено жестокое убийство. На месте преступления — ни одного уцелевшего. Только несколько трупов и хаотичный набор мобильных телефонов, карманных видеокамер и других устройств, оставшихся от потерпевших. Детектив, которому поручено расследование, с помощью сохранившихся записей пытается восстановить цепь загадочных событий, приведших к трагедии.


Сэмпл | Трейлер


Качество видео: WEB-DL 1080p
Формат видео: MKV

Видео: x264 / High@L4.1 / 1916 x 796 / 4 765 Kbps / 2.40:1
Аудио:
Russian: 48 kHz, AC3 Dolby Digital, 2.0 ch, ~192 kbps
English: 48 kHz, AC3 Dolby Digital, 3/2 (L,C,R,l,r) + LFE ch, ~384 kbps
Формат субтитров: softsub (SRT)

Раздача от




Общее
Уникальный идентификатор : 175604760662910562752215684225438079741 (0x841C3F2752962D6F9E2558EFB7E45AFD)
Полное имя : D:!unionpeer.orgUliki.2013.web-dl.1080p.x264.ac3.rus.eng.unionpeer.mkv
Формат : Matroska
Версия формата : Version 2
Размер файла : 3,58 Гбайт
Продолжительность : 1 ч. 33 м.
Общий поток : 5450 Кбит/сек
Название фильма : Улики / Evidence [2013] | Unionpeer
Дата кодирования : UTC 2013-07-21 04:23:10
Программа кодирования : mkvmerge v3.2.0 ('Beginnings') built on Feb 12 2010 16:46:17
Библиотека кодирования : libebml v0.7.9 + libmatroska v0.8.1

Видео
Идентификатор : 1
Формат : AVC
Формат/Информация : Advanced Video Codec
Профиль формата : High@L4.0
Параметр CABAC формата : Да
Параметр ReFrames формата : 5 кадров
Идентификатор кодека : V_MPEG4/ISO/AVC
Продолжительность : 1 ч. 33 м.
Битрейт : 4765 Кбит/сек
Ширина : 1916 пикселей
Высота : 796 пикселей
Соотношение сторон : 2,40:1
Режим частоты кадров : Постоянный
Частота кадров : 23,976 кадра/сек
Цветовое пространство : YUV
Субдискретизация насыщенности : 4:2:0
Битовая глубина : 8 бит
Тип развёртки : Прогрессивная
Бит/(Пиксели*Кадры) : 0.130
Размер потока : 3,13 Гбайт (87%)
Язык : English
Default : Нет
Forced : Нет
Основные цвета : BT.709
Характеристики трансфера : BT.709
Коэффициенты матрицы : BT.709

Аудио #1
Идентификатор : 2
Формат : AC-3
Формат/Информация : Audio Coding 3
Расширение режима : CM (complete main)
Параметр Endianness формата : Big
Идентификатор кодека : A_AC3
Продолжительность : 1 ч. 33 м.
Вид битрейта : Постоянный
Битрейт : 192 Кбит/сек
Каналы : 2 канала
Расположение каналов : Front: L R
Частота : 48,0 КГц
Битовая глубина : 16 бит
Метод сжатия : С потерями
Размер потока : 129 Мбайт (4%)
Заголовок : lord666
Язык : Russian
Default : Да
Forced : Нет

Аудио #2
Идентификатор : 3
Формат : AC-3
Формат/Информация : Audio Coding 3
Расширение режима : CM (complete main)
Параметр Endianness формата : Big
Идентификатор кодека : A_AC3
Продолжительность : 1 ч. 33 м.
Вид битрейта : Постоянный
Битрейт : 384 Кбит/сек
Каналы : 6 каналов
Расположение каналов : Front: L C R, Side: L R, LFE
Частота : 48,0 КГц
Битовая глубина : 16 бит
Метод сжатия : С потерями
Размер потока : 258 Мбайт (7%)
Язык : English
Default : Нет
Forced : Нет

Текст
Идентификатор : 4
Формат : UTF-8
Идентификатор кодека : S_TEXT/UTF8
Идентификатор кодека/Информация : UTF-8 Plain Text
Язык : English
Default : Нет
Forced : Нет

Меню
00:00:00.000 : en:Evidence
00:07:52.000 : en:This Could Be It
00:14:25.000 : en:Viva Las Vegas
00:23:23.000 : en:Help
00:31:06.000 : en:First Vicitim
00:40:31.000 : en:Night Vision
00:47:59.000 : en:I Know Why
00:54:39.000 : en:A Motive
01:01:29.000 : en:Fuel House
01:07:56.000 : en:Just A Game
01:19:26.000 : en:Masterpiece
01:28:40.000 : en:End Credits




реклама партнёра


Вернуться к началу
 Профиль Отправить личное сообщение  
 
   Похожие торренты   Автор   Торрент   Размер 
В этой теме нет новых непрочитанных сообщений. Свидетельство / Evidence [ужасы, триллер, 2011] BDRip-AVC, Mvo

salma3

143 | 9

1.36 ГБ

В этой теме нет новых непрочитанных сообщений. Свидетельство / Evidence [ужасы, триллер, 2011] BDRemux, 2Mvo+Avo+Sub

salma3

0 | 3

19.99 ГБ

В этой теме нет новых непрочитанных сообщений. Citizen Way - Love Is The Evidence [2013, Alt.Rock, MP3]

PriZraK

0 | 1

82.08 МБ

В этой теме нет новых непрочитанных сообщений. Владение 18 [ужасы, детектив, триллер, 2013] Blu-ray 1080p [лицензия]

Dracon

3 | 3

20.53 ГБ

В этой теме нет новых непрочитанных сообщений. Смерть в сети / The Den [ужасы, триллер, 2013] WEB-DL 1080p, Dub [лицензия]

Dracon

313 | 12

3.19 ГБ

В этой теме нет новых непрочитанных сообщений. Пораженный / Afflicted [ужасы, триллер, 2013] BDRip 1080p, Avo+Sub.

salma3

116 | 11

7.07 ГБ

В этой теме нет новых непрочитанных сообщений. Sunwalter - SETI Evidence [2013, Melodic Extreme Metal, MP3]

PriZraK

0 | 2

93.39 МБ


Начать новую тему Ответить на тему  [ 1 сообщение ] 




Для Мосгорсуда, Роскомнадзора и рекламодателей:: mosgorsud-torrent[собачка]yandex.ru