Автор

СообщениеДобавлено: 18 июл 2013, 13:58 

Не в сети
Супермодератор
Аватара пользователя
Дата регистрации:
15 фев 2012, 16:44
Возраст: 27
Торренты: 6739
Раздал: 8.48 ТБ 
Скачал: 3.11 ТБ 
Ратио: 2.723
Спасибо: 5130 / 2089
Сообщения: 17372

Информация о фильме
Название: Дьявольская история
Оригинальное название: Il était une fois le diable - Devil Story
Год выхода: 1985
Жанр: ужасы
Режиссер: Бернард Лауноис
В ролях: Вероника Рено, Марсель Портье, Катрин Дай, Николь Дезайи, Кристиан Помель, Паскаль Саймон

О фильме:
В небольшой французской деревушке, неподалёку от огромного особняка, обитает уродливый монстр и его мамаша. И плохо приходится заблудившейся молодой паре, решившей принять приглашение на ночлег у добрых, с первого взгляда, стариков, владельцев особняка…



Страна: Франция
Продолжительность: 01:12:38
Перевод: Любительский (одноголосый) [Сафронов]

Файл
Кодек: XviD
Качество: DVDRip
Видео: 720x400, 2203 kbps, 25.000 fps, 0.306 Bits/(Pixel*Frame)
Звук: AC3, 48 kHz, 192 kbps, 2 ch
Субтитры: Отсутствуют

Семпл
Релиз от:

Автор рипа: _Bathory_


General
Complete name : G:Devil.Story.1985.DVDRip.avi
Format : AVI
Format/Info : Audio Video Interleave
File size : 1.22 GiB
Duration : 1h 12mn
Overall bit rate : 2 404 Kbps
Writing application : VirtualDubMod 1.5.10.3 | http://www.virtualdub-fr.org || (build 2550/release)
Writing library : VirtualDubMod build 2550/release

Video
ID : 0
Format : MPEG-4 Visual
Format profile : Advanced Simple@L5
Format settings, BVOP : 2
Format settings, QPel : No
Format settings, GMC : No warppoints
Format settings, Matrix : Default (H.263)
Codec ID : XVID
Codec ID/Hint : XviD
Duration : 1h 12mn
Bit rate : 2 203 Kbps
Width : 720 pixels
Height : 400 pixels
Display aspect ratio : 16:9
Frame rate : 25.000 fps
Color space : YUV
Chroma subsampling : 4:2:0
Bit depth : 8 bits
Scan type : Progressive
Compression mode : Lossy
Bits/(Pixel*Frame) : 0.306
Stream size : 1.12 GiB (92%)
Writing library : XviD 73

Audio
ID : 1
Format : AC-3
Format/Info : Audio Coding 3
Mode extension : CM (complete main)
Format settings, Endianness : Big
Codec ID : 2000
Duration : 1h 12mn
Bit rate mode : Constant
Bit rate : 192 Kbps
Channel(s) : 2 channels
Channel positions : Front: L R
Sampling rate : 44.1 KHz
Bit depth : 16 bits
Compression mode : Lossy
Stream size : 99.7 MiB (8%)
Alignment : Split accross interleaves
Interleave, duration : 40 ms (1.00 video frame)
Interleave, preload duration : 500 ms





реклама партнёра


Вернуться к началу
 Профиль Отправить личное сообщение  
 
   Похожие торренты   Автор   Торрент   Размер 
В этой теме нет новых непрочитанных сообщений. Дьявольская миля / Devil's Mile [ужасы, триллер, 2014] WEBRip, Avo

salma3

254 | 14

970.81 МБ

В этой теме нет новых непрочитанных сообщений. Дьявольская миля / Devil's Mile [ужасы, боевик, криминал, 2014] WEBRip, Avo

salma3

436 | 35

1.37 ГБ

В этой теме нет новых непрочитанных сообщений. Дьявольская музыка / Дьявольская шутка / Scherzo Diabolico [ужасы, триллер, комедия, 2015] HDRip, Avo

salma3

0 | 0

1.37 ГБ

В этой теме нет новых непрочитанных сообщений. Дьявольская гора / Sasquatch Mountain / Devil on the Mountain [фантастика, 2006] DVDRip, Dvo

salma3

5 | 4

1.47 ГБ

В этой теме нет новых непрочитанных сообщений. История ужасов / Horror Story [Ужасы, 2013] DVDRip, Dvo

salma3

5 | 4

1.48 ГБ

В этой теме нет новых непрочитанных сообщений. История Евы / Story of Eva [ужасы, триллер, 2015] WEB-DLRip, Dvo

salma3

268 | 62

1.47 ГБ

В этой теме нет новых непрочитанных сообщений. Страшная рождественская история / A Christmas Horror Story (Грант Харви, Стивен Хобан) [Ужасы, 2015] WEB-DL 720p, dvo

Dracon

823 | 53

3.15 ГБ


 [ 1 сообщение ] 




Для Мосгорсуда, Роскомнадзора и рекламодателей:: mosgorsud-torrent[собачка]yandex.ru