Торрент файл
скачать торрент магнет ссылка Добавлен: 17 июл 2013, 17:16
Размер: 1.64 ГБ
Сидеров: 20
Личеров: 6
Автор

СообщениеДобавлено: 17 июл 2013, 17:16 

Не в сети
Зам. Админа
Аватара пользователя
Дата регистрации:
02 дек 2010, 12:39
Спасибо: 12461 / 214
Сообщения: 27968


Год выхода: 2001
Жанр: триллер, драма, криминал
Режиссер: Брайан Коппельман, Дэвид Левиен
В ролях: Бэрри Пеппер, Эндрю Дэволи, Сет Грин, Вин Дизель, Джон Малкович, Артур Дж. Наскарелла, Том Нунан, Николас Паско, Шоун Дойл, Кевин Гейдж

О фильме:
Для сына босса мафии ошибки и чувства непростительная роскошь. Мэтти пришлось дорого заплатить чтобы понять это. После долгих поисков "законной" работы он обращается к отцу, и тот дает ему шанс... Но друг детства Мэтти, кокаинист Марблс, теряет сумку с деньгами. Деньги попадают к двум обкуренным тинэйджерам, живущим в захолустном западном городишке. Дело-табак! На помощь Мэтти приходят его старинные друзья, один из которых, Тэйлор — разрабатывает план активных действий по возвращению утраченных денежных средств. Но городок контролирует нечистый на руку шериф и его помощник, и шансы друзей вернуть деньги становятся невелики. Дядя Тедди приезжает в город, чтобы "устаканить" ситуацию и объяснить Мэтти раз и навсегда, что значит быть "членом семьи".



Страна: США
Студия: Lawrence Bender Productions, New Line Cinema
Продолжительность: 01:31:36
Перевод: Профессиональный (многоголосый закадровый)

Кодек: h.264
Качество: BDRip-AVC
Видео: 1789 Кбит/с, 1024x428, 23.976 кадр/c

Звук: Русский, английский (AC3, 6 ch, 384 Кбит/с)

Субтитры: Русские, английские

Полное имя : Vyshibaly.2001.x264.BDRip.(AVC).0ptimus.mkv
Формат : Matroska
Версия формата : Version 4 / Version 2
Размер файла : 1,64 Гбайт
Продолжительность : 1 ч. 31 м.
Общий поток : 2560 Кбит/сек
Название фильма : Вышибалы (Крутые парни) | Knockaround Guys [2001] -=BDRip (AVC) by 0ptimus=-
Дата кодирования : UTC 2013-07-17 06:08:18
Программа кодирования : mkvmerge v6.1.0 ('Old Devil') built on Mar 2 2013 14:32:37
Библиотека кодирования : libebml v1.3.0 + libmatroska v1.4.0

Видео
Идентификатор : 1
Формат : AVC
Формат/Информация : Advanced Video Codec
Профиль формата : High@L4.1
Параметр CABAC формата : Да
Параметр ReFrames формата : 10 кадров
Идентификатор кодека : V_MPEG4/ISO/AVC
Продолжительность : 1 ч. 31 м.
Битрейт : 1789 Кбит/сек
Ширина : 1024 пикселя
Высота : 428 пикселей
Соотношение сторон : 2,40:1
Частота кадров : 23,976 кадра/сек
Цветовое пространство : YUV
Субдискретизация насыщенности : 4:2:0
Битовая глубина : 8 бит
Тип развёртки : Прогрессивная
Бит/(Пиксели*Кадры) : 0.170
Размер потока : 1,11 Гбайт (68%)
Заголовок : Rip by 0ptimus
Библиотека кодирования : x264 core 132 r2310 76a5c3a
Настройки программы : cabac=1 / ref=10 / deblock=1:-3:-3 / analyse=0x3:0x113 / me=umh / subme=10 / psy=1 / psy_rd=1.00:0.20 / mixed_ref=1 / me_range=32 / chroma_me=1 / trellis=2 / 8x8dct=1 / cqm=0 / deadzone=21,11 / fast_pskip=0 / chroma_qp_offset=-3 / threads=4 / lookahead_threads=1 / sliced_threads=0 / nr=0 / decimate=0 / interlaced=0 / bluray_compat=0 / constrained_intra=0 / bframes=9 / b_pyramid=2 / b_adapt=2 / b_bias=0 / direct=3 / weightb=1 / open_gop=0 / weightp=2 / keyint=240 / keyint_min=23 / scenecut=40 / intra_refresh=0 / rc_lookahead=40 / rc=2pass / mbtree=0 / bitrate=1789 / ratetol=1.0 / qcomp=0.60 / qpmin=0 / qpmax=69 / qpstep=4 / cplxblur=20.0 / qblur=0.5 / vbv_maxrate=50000 / vbv_bufsize=50000 / nal_hrd=none / ip_ratio=1.40 / pb_ratio=1.30 / aq=1:1.00
Язык : English

Аудио #1
Идентификатор : 2
Формат : AC-3
Формат/Информация : Audio Coding 3
Расширение режима : CM (complete main)
Идентификатор кодека : A_AC3
Продолжительность : 1 ч. 31 м.
Вид битрейта : Постоянный
Битрейт : 384 Кбит/сек
Каналы : 6 каналов
Расположение каналов : Front: L C R, Side: L R, LFE
Частота : 48,0 КГц
Битовая глубина : 16 бит
Метод сжатия : С потерями
Размер потока : 252 Мбайт (15%)
Заголовок : Двухголосый закадровый [R5] AC3 5.1 384 kbps
Язык : Russian

Аудио #2
Идентификатор : 3
Формат : AC-3
Формат/Информация : Audio Coding 3
Расширение режима : CM (complete main)
Идентификатор кодека : A_AC3
Продолжительность : 1 ч. 31 м.
Вид битрейта : Постоянный
Битрейт : 384 Кбит/сек
Каналы : 6 каналов
Расположение каналов : Front: L C R, Side: L R, LFE
Частота : 48,0 КГц
Битовая глубина : 16 бит
Метод сжатия : С потерями
Размер потока : 252 Мбайт (15%)
Заголовок : AC3 5.1 384 kbps
Язык : English

Текст #1
Идентификатор : 4
Формат : UTF-8
Идентификатор кодека : S_TEXT/UTF8
Идентификатор кодека/Информация : UTF-8 Plain Text
Язык : Russian

Текст #2
Идентификатор : 5
Формат : UTF-8
Идентификатор кодека : S_TEXT/UTF8
Идентификатор кодека/Информация : UTF-8 Plain Text
Язык : English

Меню
00:00:00.000 : en:00:00:00.000
00:05:50.809 : en:00:05:50.809
00:09:27.192 : en:00:09:27.192
00:12:33.086 : en:00:12:33.086
00:16:00.168 : en:00:16:00.168
00:20:17.508 : en:00:20:17.508
00:24:56.870 : en:00:24:56.870
00:30:25.073 : en:00:30:25.073
00:34:46.876 : en:00:34:46.876
00:39:20.817 : en:00:39:20.817
00:43:58.511 : en:00:43:58.511
00:48:36.622 : en:00:48:36.622
00:52:17.843 : en:00:52:17.843
00:55:38.877 : en:00:55:38.877
01:01:34.232 : en:01:01:34.232
01:05:22.377 : en:01:05:22.377
01:10:06.327 : en:01:10:06.327
01:15:02.373 : en:01:15:02.373
01:18:10.144 : en:01:18:10.144
01:23:14.531 : en:01:23:14.531
01:27:21.194 : en:01:27:21.194




Релиз от:




реклама партнёра


Вернуться к началу
 Профиль  
 
   Похожие торренты   Автор   Торрент   Размер 
В этой теме нет новых непрочитанных сообщений. Крутые парни / Крутые ребята / Крутые мужики / Tough Guys [криминал, комедия, 1986] WEB-DL 720p, Dub+Mvo+Sub

salma3

4 | 1

3.36 ГБ

В этой теме нет новых непрочитанных сообщений. Черные тигры / Хорошие парни носят черное / Крутые парни ходят в черном / Good Guys Wear Black [боевик, 1978] BDRip, Mvo

salma3

0 | 1

1.46 ГБ

В этой теме нет новых непрочитанных сообщений. Славные парни / The Nice Guys (Шейн Блэк / Shane Black) [2016, США, криминал, комедия, HDRip] Dub (iTunes)

Alfredovich

23 | 7

2.5 ГБ

В этой теме нет новых непрочитанных сообщений. Плохие парни / Bad Guys [01-11 из 11] (Ким Чон Мин) [детектив, драма, 2014] HDTVRip 720p, dvo

Dracon

197 | 28

13.78 ГБ

В этой теме нет новых непрочитанных сообщений. Крутые стволы / Mean Guns [боевик, триллер, криминал, 1997] BDRip 1080p, Mvo+Sub

salma3

43 | 8

12.33 ГБ

В этой теме нет новых непрочитанных сообщений. Плохие парни 2 / Bad Boys II [боевик, триллер, комедия, криминал, 2003] BDRip 720p, Dub+Sub

salma3

1 | 3

16.94 ГБ

В этой теме нет новых непрочитанных сообщений. Парни со стволами / War Dogs [драма, комедия, криминал, военный, 2016] BDRip-AVC, Dub [лицензия]

salma3

532 | 51

1.46 ГБ


Начать новую тему Ответить на тему  [ 1 сообщение ] 




Для Мосгорсуда, Роскомнадзора и рекламодателей:: mosgorsud-torrent[собачка]yandex.ru