Торрент файл
скачать торрент магнет ссылка Добавлен: 16 июл 2013, 13:03
Размер: 1.37 ГБ
Сидеров: 15
Личеров: 5
Статус: (salma3)
Автор

СообщениеДобавлено: 16 июл 2013, 13:03 

Не в сети
Супермодератор
Аватара пользователя
Дата регистрации:
15 фев 2012, 16:44
Возраст: 28
Спасибо: 6585 / 2145
Сообщения: 44094

Логово мутанта / The Nest

Год выхода: 1988
Жанр: ужасы, фантастика
Режиссер: Теренс Х. Винклесс

В ролях: Роберт Лэнсинг, Лиза Ланглуа, Фрэнк Луз, Терри Триз, Стивен Дэвис, Диана Беллами, Джек Коллинз, Нэнси Морган, Джефф Уинклесс, Стив Таннен


О фильме:
Маленький городок на острове переживает не лучшие времена. Из-за дефицита бюджета мэр города дает разрешение проводить исследования компании "Intec" на территории острова. Вскоре последовало нашествие тараканов. Оказывается, компания "Intec" пыталась вывести новый вид тараканов, который должен был уничтожить всех насекомых своего вида и погибнуть. Но тараканы мутировали, размножились в огромном количестве и начали нападать на людей и животных, проживающих на острове. Из-за постоянных мутаций тараканы приобрели частичный иммунитет к ядохимикатам и дальнейшее использование химии может сделать их полностью неуязвимыми. Кроме того, жертвы насекомых превращаются в зомби-мутантов - таракан-кот, таракан-человек... Местный шериф и несколько уцелевших жителей острова отправляются в логово тараканов-мутантов с целью уничтожить матку насекомых, которая управляет всеми мутантами...




Страна: США, Concorde Pictures
Продолжительность: 01:27:30
Перевод: Профессиональный [двухголосый]

Файл
Качество: DVDRip
Формат файла: AVI
Видео кодек: XviD
Аудио кодек: AC3
Видео: 720x480 (4:3), 2040 Kbps, 23.976 fps, 0.246 Bits/(Pixel*Frame)
Звук: AC3, 48 kHz, 192 kbps, 2 ch




General
Complete name : G:The.Nest.1988.DVDRip.avi
Format : AVI
Format/Info : Audio Video Interleave
File size : 1.37 GiB
Duration : 1h 27mn
Overall bit rate : 2 241 Kbps
Writing application : VirtualDubMod 1.5.10.3 | http://www.virtualdub-fr.org || (build 2550/release)
Writing library : VirtualDubMod build 2550/release

Video
ID : 0
Format : MPEG-4 Visual
Format profile : Advanced Simple@L5
Format settings, BVOP : 2
Format settings, QPel : No
Format settings, GMC : No warppoints
Format settings, Matrix : Default (H.263)
Codec ID : XVID
Codec ID/Hint : XviD
Duration : 1h 27mn
Bit rate : 2 040 Kbps
Width : 720 pixels
Height : 480 pixels
Display aspect ratio : 3:2
Frame rate : 23.976 fps
Standard : NTSC
Color space : YUV
Chroma subsampling : 4:2:0
Bit depth : 8 bits
Scan type : Progressive
Compression mode : Lossy
Bits/(Pixel*Frame) : 0.246
Stream size : 1.25 GiB (91%)
Writing library : XviD 73

Audio
ID : 1
Format : AC-3
Format/Info : Audio Coding 3
Mode extension : CM (complete main)
Format settings, Endianness : Big
Codec ID : 2000
Duration : 1h 27mn
Bit rate mode : Constant
Bit rate : 192 Kbps
Channel(s) : 2 channels
Channel positions : Front: L R
Sampling rate : 48.0 KHz
Bit depth : 16 bits
Compression mode : Lossy
Stream size : 120 MiB (9%)
Alignment : Split accross interleaves
Interleave, duration : 42 ms (1.00 video frame)
Interleave, preload duration : 500 ms

Релиз от: Автор рипа: _Bathory_




реклама партнёра


Вернуться к началу
 Профиль Отправить личное сообщение  
 
   Похожие торренты   Автор   Торрент   Размер 
В этой теме нет новых непрочитанных сообщений. Волчье логово / Логово волков / Raised by Wolves [ужасы, 2014] DVDRip, Mvo

salma3

248 | 49

1.37 ГБ

В этой теме нет новых непрочитанных сообщений. Внутренний страх / The Terror Within [ужасы, фантастика, 1988] DVDRip, Mvo

salma3

21 | 3

1.45 ГБ

В этой теме нет новых непрочитанных сообщений. Ярость зверя / Rage, furia primitiva [ужасы, фантастика, триллер, 1988] DVDRip, Avo

salma3

23 | 5

1.49 ГБ

В этой теме нет новых непрочитанных сообщений. Человек-краб с Марса / Lobster Man from Mars [ужасы, фантастика, комедия, 1988] DVDRip, 2Avo

salma3

14 | 4

1.46 ГБ

В этой теме нет новых непрочитанных сообщений. Возвращение-помидоров-убийц / Return of the Killer Tomatoes [ужасы, фантастика, комеди, 1988] DVDRip, Mvo [Лицензия]

salma3

50 | 4

1.46 ГБ

В этой теме нет новых непрочитанных сообщений. Логово тьмы / Den of Darkness [ужасы, триллер, 2016] WEB-DLRip, Mvo

salma3

297 | 117

1.37 ГБ

В этой теме нет новых непрочитанных сообщений. Логово зверя / Haunt [ужасы, детектив, 2013] BDRip 1080p, Dub [iTunes Russia]

salma3

5 | 4

7.65 ГБ


Начать новую тему Ответить на тему  [ 1 сообщение ] 




Для Мосгорсуда, Роскомнадзора и рекламодателей:: mosgorsud-torrent[собачка]yandex.ru