Торрент файл
скачать торрент магнет ссылка Добавлен: 15 июл 2013, 15:57
Размер: 785.31 МБ
Сидеров: 10
Личеров: 2
Статус: (salma3)
Автор

СообщениеДобавлено: 15 июл 2013, 15:57 

В сети
Супермодератор
Аватара пользователя
Дата регистрации:
15 фев 2012, 16:44
Возраст: 28
Спасибо: 6577 / 2142
Сообщения: 43856

Без чувств / Senseless

Год выхода: 1998
Жанр: мелодрама, комедия
Режиссер: Пенелопа Сфирис / Penelope Spheeris

В ролях: Марлон Уайанс, Брэд Дуриф, Эстер Скотт, Дебра Джо Рапп, Марк Кристофер Лоуренс, Мэттью Лиллард, Дэвид Спейд, Тамара Тейлор ,Джон Ингл, Рип Торн


О фильме:
Бедный студент Дэррил Уизерспун трудится на четырех работах, но денег на оплату счетов всё равно не хватает. В надежде добыть еще немного средств Дэррил соглашается принять участие в сомнительном медицинском эксперименте. Молодой человек становится чуть ли не супергероем, но неожиданно о себе дают знать странные побочные эффекты…




Страна: США, Miramax Films
Продолжительность: 01:33:21
Перевод: Профессиональный (многоголосый, закадровый) [СТС]

Файл
Качество: HDRip
Формат файла: AVI
Видео кодек: XviD
Аудио кодек: AC3
Видео: 656x368 (1.78:1), 23.976 fps, XviD build 50 ~1038 kbps avg, 0.18 bit/pixel
Аудио 48 kHz, MPEG Layer 3, 2 ch, ~128.00 kbps avg


General
Полное имя : D: Bez.Chuvstv.1998.HDRip.by.Darkseid.avi
Формат : AVI
Формат/Информация : Audio Video Interleave
Размер файла : 785 MiB
Продолжительность : 1h 33mn
Общий поток : 1 176 Kbps
Программа кодирования : VirtualDubMod 1.5.10.3 | http://www.virtualdub-fr.org || (build 2550/release)
Библиотека кодирования : VirtualDubMod build 2550/release

Video
Идентификатор : 0
Формат : MPEG-4 Visual
Профиль формата : Advanced Simple@L5
Параметр BVOP формата : 1
Параметр QPel формата : No
Параметр GMC формата : No warppoints
Параметр матрицы формата : Default (MPEG)
Идентификатор кодека : XVID
Идентификатор кодека/Подсказка : XviD
Продолжительность : 1h 33mn
Битрейт : 1 039 Kbps
Ширина : 656 pixels
Высота : 368 pixels
Соотношение сторон : 16:9
Частота кадров : 23.976 fps
Цветовое пространство : YUV
Субдискретизация насыщенности : 4:2:0
Битовая глубина : 8 bits
Тип развёртки : Progressive
Метод сжатия : Lossy
Бит/(Пиксели*Кадры) : 0.179
Размер потока : 694 MiB (88%)
Библиотека кодирования : XviD 1.2.1 (UTC 2008-12-04)

Audio
Идентификатор : 1
Формат : MPEG Audio
Версия формата : Version 1
Профиль формата : Layer 3
Идентификатор кодека : 55
Идентификатор кодека/Подсказка : MP3
Продолжительность : 1h 33mn
Вид битрейта : Constant
Битрейт : 128 Kbps
Каналы : 2 channels
Частота : 48.0 KHz
Метод сжатия : Lossy
Размер потока : 85.5 MiB (11%)
Выравнивание : Aligned on interleaves
Продолжительность промежутка : 42 ms (1.00 video frame)
Время предзагрузки промежутка : 504 ms
Библиотека кодирования : L3.99r
Настройки программы : -m s -V 4 -q 2 -lowpass 17 -b 128





реклама партнёра


Вернуться к началу
 Профиль Отправить личное сообщение  
 
   Похожие торренты   Автор   Торрент   Размер 
В этой теме нет новых непрочитанных сообщений. Поцелуй понарошку / Kissing a Fool [мелодрама, комедия, 1998] HDRip, Dvo

salma3

16 | 3

1.45 ГБ

В этой теме нет новых непрочитанных сообщений. Голосок / Little Voice [драма, мелодрама, комедия, музыка, 1998] HDRip, Dvo

salma3

25 | 7

1.45 ГБ

В этой теме нет новых непрочитанных сообщений. Шесть дней, семь ночей / Six Days Seven Nights [Мелодрама, Комедия, Боевик, Приключения, 1998] HDRip 1080p, Dub+Sub

salma3

0 | 0

4.37 ГБ

В этой теме нет новых непрочитанных сообщений. Осажденные / L'assedio [драма, мелодрама, 1998] HDRip, Mvo

salma3

68 | 11

1.45 ГБ

В этой теме нет новых непрочитанных сообщений. Большие надежды / Great Expectations [драма, мелодрама, 1998] HDRip, Mvo

salma3

49 | 6

1.45 ГБ

В этой теме нет новых непрочитанных сообщений. Большой Лебовски / The Big Lebowski [комедия, криминал, 1998] HDRip, Dub

salma3

247 | 20

1.45 ГБ

В этой теме нет новых непрочитанных сообщений. Фан-клуб / Free Enterprise [мелодрама, комедия, 1998] DVDRip, Mvo

salma3

7 | 1

1.46 ГБ


Начать новую тему Ответить на тему  [ 1 сообщение ] 




Для Мосгорсуда, Роскомнадзора и рекламодателей:: mosgorsud-torrent[собачка]yandex.ru