Торрент файл
скачать торрент магнет ссылка Добавлен: 13 июл 2013, 21:20
Размер: 701.93 МБ
Сидеров: 18
Личеров: 3
Статус: (salma3)
Автор

СообщениеДобавлено: 13 июл 2013, 21:20 

Не в сети
Супермодератор
Аватара пользователя
Дата регистрации:
15 фев 2012, 16:44
Возраст: 27
Спасибо: 5148 / 2090
Сообщения: 17558
Альбатрос / Albatross

Год выхода: 2011
Жанр: Комедия, Драма
Режиссер: Найал МакКормик / Niall MacCormick

В ролях: Джессика Браун-Финдли /Jessica Brown Findlay/, Гарри Тредэвэй /Harry Treadaway/, Джозеф Алтин /Josef Altin/, Фелисити Джонс /Felicity Jones/


О фильме:
История об Эмилии, привлекательной, сексуальной и весьма умной девушке. Она устраивается на работу в семейный отель, где быстро сходится с дочерью хозяев, своей ровесницей, семнадцатилетней Бет. Попутно героиня заводит интрижку с ее отцом, писателем Джонатаном. Этот роман будет иметь для всех героев фильма разрушительные последствия…




Страна: Великобритания
Продолжительность: 01:26:12
Перевод: Профессиональный (двухголосый закадровый) [студия Elrom]

Файл
Качество: DVDRip
Формат файла: AVI
Видео кодек: XviD
Аудио кодек: AC3
Видео: 640x256 (2.50:1), 25 fps, XviD build 50 ~1000 kbps avg, 0.24 bit/pixel
Аудио: 48 kHz, MPEG Layer 3, 2 ch, ~128.00 kbps avg





General
Complete name : C:Albatros.11_25KAlbatros.2011.DVDrip.XviD.Rus_25KADR.avi
Format : AVI
Format/Info : Audio Video Interleave
File size : 702 MiB
Duration : 1h 26mn
Overall bit rate : 1 138 Kbps
Movie name : Albatros.2011
Original source form/Distributed by : Albatross.2011.DVDRIP.Xvid-BHRG.avi
Genre : Drama, Comedy
Copyright : 25KADR
Comment : DVO (Elrom studio)

Video
ID : 0
Format : MPEG-4 Visual
Format profile : Advanced Simple@L5
Format settings, BVOP : 2
Format settings, QPel : No
Format settings, GMC : No warppoints
Format settings, Matrix : Default (H.263)
Codec ID : XVID
Codec ID/Hint : XviD
Duration : 1h 26mn
Bit rate : 1 001 Kbps
Width : 640 pixels
Height : 256 pixels
Display aspect ratio : 2.500
Frame rate : 25.000 fps
Color space : YUV
Chroma subsampling : 4:2:0
Bit depth : 8 bits
Scan type : Progressive
Compression mode : Lossy
Bits/(Pixel*Frame) : 0.244
Stream size : 617 MiB (88%)
Writing library : XviD 1.2.1 (UTC 2008-12-04)

Audio
ID : 1
Format : MPEG Audio
Format version : Version 1
Format profile : Layer 3
Mode : Joint stereo
Mode extension : MS Stereo
Codec ID : 55
Codec ID/Hint : MP3
Duration : 1h 26mn
Bit rate mode : Constant
Bit rate : 128 Kbps
Channel(s) : 2 channels
Sampling rate : 48.0 KHz
Compression mode : Lossy
Stream size : 78.9 MiB (11%)
Alignment : Aligned on interleaves
Interleave, duration : 40 ms (1.00 video frame)
Interleave, preload duration : 504 ms
Language : Russian




реклама партнёра


Вернуться к началу
 Профиль Отправить личное сообщение  
 
   Похожие торренты   Автор   Торрент   Размер 
В этой теме нет новых непрочитанных сообщений. Big Wreck - Albatross [2012, Hard RAlternative Rock,Hard Rock, MP3]

PriZraK

0 | 1

113 МБ

В этой теме нет новых непрочитанных сообщений. Панки живы / Pankot ne e mrtov [Драма, комедия, 2011] DVDRip, Avo

salma3

34 | 5

1.37 ГБ

В этой теме нет новых непрочитанных сообщений. Двойная забава / Double Dhamaal [Драма, комедия, криминал, 2011] DVDRip, Dub

salma3

8 | 6

2.05 ГБ

В этой теме нет новых непрочитанных сообщений. Мальчик-игрушка / Boy Toy [Комедия, 2011] DVDRip, Mvo

salma3

223 | 11

1.37 ГБ

В этой теме нет новых непрочитанных сообщений. Сокамерники / Cellmates [Комедия, драма, 2011] HDRip, Dvo [НТВ+]

salma3

81 | 2

745.58 МБ

В этой теме нет новых непрочитанных сообщений. Маска / Mugamoodi [боевик, комедия, криминал, 2011] DVDRip, sub

salma3

3 | 5

1.46 ГБ

В этой теме нет новых непрочитанных сообщений. Виктор / Victor [Комедия, драма. 2009] DVDRip, Mvo [НТВ+]

salma3

52 | 3

1.37 ГБ


Начать новую тему Ответить на тему  [ 1 сообщение ] 




Для Мосгорсуда, Роскомнадзора и рекламодателей:: mosgorsud-torrent[собачка]yandex.ru