Торрент файл
скачать торрент магнет ссылка Добавлен: 11 июл 2013, 09:23
Размер: 1.41 ГБ
Сидеров: 35
Личеров: 3
Автор

СообщениеДобавлено: 11 июл 2013, 09:23 

Не в сети
Зам. Админа
Аватара пользователя
Дата регистрации:
02 дек 2010, 12:39
Спасибо: 12611 / 214
Сообщения: 28049


Страна: США
Жанр: триллер, детектив
Год выпуска: 2013
Продолжительность: 01:32:41
Перевод: Профессиональный (многоголосый закадровый) - (Товарищество 110/17)

Режиссер: Стивен Соммерс / Stephen Sommers

В ролях: Антон Ельчин, Эшли Соммерс, Леонор Варела, Мэттью Пейдж, Кэйси Мессер, Берни Леннинг, Нико Торторелла, Уиллем Дефо, Кайл МакКивер, Кармен Корли

Описание: Главный герой наделен даром (или проклятием) видеть мертвецов. Каждый их визит становится началом очередной охоты на убийцу — призраки ведут Томаса на помощь тем, кому еще рано расставаться с жизнью. О способности героя знают только самые близкие друзья и любимая девушка. С их помощью ему предстоит отвести большую беду от маленького городка в центре пустыни Мохаве.
Доп. информация:
Перевод:Константин Кривоногов
Работа со звуком:Алексей Фокин
Роли озвучивали:

Михаил Суслов
Константин Погодаев
Владимир Чистохин
Алексей Фокин
Анастасия Флигина
Светлана Чистохина

Сэмпл
Качество видео: DVDRip
Формат видео: AVI
Видео: 720x304, 25.000 fps, 1 720 Kbps, 0.314 bit/pixel
Аудио: AC3, 48 KHz, 384 Kbps, 6 ch - Rus


Format : AVI
Format/Info : Audio Video Interleave
File size : 1.41 GiB
Duration : 1h 32mn
Overall bit rate : 2 178 Kbps
Writing application : VirtualDubModRus 1.5.10.2 (build 2542/release)
Writing library : VirtualDubMod build 2542/release

Video
ID : 0
Format : MPEG-4 Visual
Format profile : Advanced Simple@L5
Format settings, BVOP : 2
Format settings, QPel : No
Format settings, GMC : No warppoints
Format settings, Matrix : Default (H.263)
Muxing mode : Packed bitstream
Codec ID : XVID
Codec ID/Hint : XviD
Duration : 1h 32mn
Bit rate : 1 720 Kbps
Width : 720 pixels
Height : 304 pixels
Display aspect ratio : 2.35:1
Frame rate : 25.000 fps
Color space : YUV
Chroma subsampling : 4:2:0
Bit depth : 8 bits
Scan type : Progressive
Compression mode : Lossy
Bits/(Pixel*Frame) : 0.314
Stream size : 1.11 GiB (79%)
Writing library : XviD 64

Audio
ID : 1
Format : AC-3
Format/Info : Audio Coding 3
Mode extension : CM (complete main)
Format settings, Endianness : Big
Codec ID : 2000
Duration : 1h 32mn
Bit rate mode : Constant
Bit rate : 448 Kbps
Channel(s) : 6 channels
Channel positions : Front: L C R, Side: L R, LFE
Sampling rate : 48.0 KHz
Bit depth : 16 bits
Compression mode : Lossy
Stream size : 297 MiB (21%)
Alignment : Split accross interleaves
Interleave, duration : 40 ms (1.00 video frame)
Interleave, preload duration : 500 ms







реклама партнёра


Вернуться к началу
 Профиль  
 
   Похожие торренты   Автор   Торрент   Размер 
В этой теме нет новых непрочитанных сообщений. Томас и его друзья: Король железной дороги / Thomas & Friends: King of the Railway [мультфильм, семейный, 2013] SATRip, Dub

salma3

20 | 4

724.53 МБ

В этой теме нет новых непрочитанных сообщений. Одна / Allein (Томас Дурхшлаг / Thomas Durchschlag) [2004 г., Германия, драма, DVDRip] sub

Alfredovich

3 | 3

1.33 ГБ

В этой теме нет новых непрочитанных сообщений. Коммуна / Kollektivet (Томас Винтерберг / Thomas Vinterberg) [2016г., Дания, драма, WEBRip] dub

Alfredovich

867 | 33

1.37 ГБ

В этой теме нет новых непрочитанных сообщений. Томас и его друзья: Большая гонка / Thomas & Friends: The Great Race [мультфильм, семейный, 2016] SATRip, Dub

salma3

22 | 7

800.18 МБ

В этой теме нет новых непрочитанных сообщений. Мужики и куры / Mænd og høns (Андерс Томас Йенсен / Anders Thomas Jensen) [2015г., Дания, комедия, драма, HDRip-AVC] Rus Sub

Alfredovich

23 | 7

1.65 ГБ

В этой теме нет новых непрочитанных сообщений. Странный ребенок / The Godsend [ужасы, драма, детектив, 1980] HDRip, Avo

salma3

72 | 14

1.46 ГБ

В этой теме нет новых непрочитанных сообщений. Странный чужак / Gadjo Dilo [драма, 1997] DVDRip, Dvo

salma3

18 | 9

1.47 ГБ


Начать новую тему Ответить на тему  [ 1 сообщение ] 




Для Мосгорсуда, Роскомнадзора и рекламодателей:: mosgorsud-torrent[собачка]yandex.ru