Торрент файл
скачать торрент магнет ссылка Добавлен: 07 июл 2013, 22:11
Размер: 1.37 ГБ
Сидеров: 8
Личеров: 5
Статус: (salma3)
Автор

СообщениеДобавлено: 07 июл 2013, 22:11 

Не в сети
Супермодератор
Аватара пользователя
Дата регистрации:
15 фев 2012, 16:44
Возраст: 27
Спасибо: 5143 / 2090
Сообщения: 17478

Пленница / Committed

Год выхода: 2011
Жанр: триллер
Режиссер: Норма Бэйли / Norma Bailey

В ролях: Андреа Рот, Ричард Берджи, Питер МакНейл, Лииса Репо-Мартелл, Дэвид Грин, ...


О фильме:
После трагической гибели жениха, психотерапевт Селеста Дюпон решает порвать с прошлым и нанимается на новую работу в “Милбурн” - психиатрическую лечебницу в штате Нью-Йорк. Доктор Куилли, глава клиники, относится к своим пациентам как к “гостям” и придерживается принципа “ты тот, кем себя считаешь”. Внезапно Селеста замечает, что она рассматривается как “гость”, а не как врач; к тому же обнаруживается, что в Милбурне нет мобильной связи, а дом окружен оградой под высоким напряжением…




Страна: США
Продолжительность: 01:23:46
Перевод: Профессиональный (многоголосый закадровый)

Файл
Качество: TVRip
Формат файла: AVI
Видео кодек: XviD
Аудио кодек: AC3
Видео: MPEG4, XviD, 704x416 (1.692), 25.000 fps, 2 143 Kbps (0.293 bit/pixel)
Аудио: AC3, 48.0 KHz, 2 ch, 192 Kbps, CBR






Общее
Полное имя : K:Пленница.avi
Формат : AVI
Формат/Информация : Audio Video Interleave
Размер файла : 1,37 Гбайт
Продолжительность : 1 ч. 23 м.
Общий поток : 2344 Кбит/сек
Название фильма : Пленница / Committed (2011)
Программа кодирования : VirtualDubMod 1.5.10.2 (build 2540/release)
Библиотека кодирования : VirtualDubMod build 2540/release

Видео
Идентификатор : 0
Формат : MPEG-4 Visual
Профиль формата : Advanced Simple@L5
Параметр BVOP формата : 2
Параметр QPel формата : Нет
Параметр GMC формата : Без точки перехода
Параметр матрицы формата : Default (MPEG)
Идентификатор кодека : XVID
Идентификатор кодека/Подсказка : XviD
Продолжительность : 1 ч. 23 м.
Битрейт : 2143 Кбит/сек
Ширина : 704 пикселя
Высота : 416 пикселей
Соотношение сторон : 1,692
Частота кадров : 25,000 кадров/сек
Цветовое пространство : YUV
Субдискретизация насыщенности : 4:2:0
Битовая глубина : 8 бит
Тип развёртки : Прогрессивная
Метод сжатия : С потерями
Бит/(Пиксели*Кадры) : 0.293
Размер потока : 1,25 Гбайт (91%)
Библиотека кодирования : XviD 1.1.0 (UTC 2005-11-22)

Аудио
Идентификатор : 1
Формат : AC-3
Формат/Информация : Audio Coding 3
Расширение режима : CM (complete main)
Параметр Endianness формата : Big
Идентификатор кодека : 2000
Продолжительность : 1 ч. 23 м.
Вид битрейта : Постоянный
Битрейт : 192 Кбит/сек
Каналы : 2 канала
Расположение каналов : Front: L R
Частота : 48,0 КГц
Битовая глубина : 16 бит
Метод сжатия : С потерями
Размер потока : 115 Мбайт (8%)
Выравнивание : Разделение по промежуткам
Продолжительность промежутка : 40 мс. (1,00 видеокадр)
Время предзагрузки промежутка : 500 мс.




реклама партнёра


Вернуться к началу
 Профиль Отправить личное сообщение  
 
   Похожие торренты   Автор   Торрент   Размер 
В этой теме нет новых непрочитанных сообщений. Пленница / The Captive [Триллер, 2014] DVDRip, Avo

salma3

2236 | 51

1.47 ГБ

В этой теме нет новых непрочитанных сообщений. В западне / Пленница / Caught [триллер, 2015] HDTVRip, Mvo

salma3

2591 | 216

1.45 ГБ

В этой теме нет новых непрочитанных сообщений. Пленница / Побег / Flukt [боевик, триллер, история, 2012] HDRip, Mvo

salma3

65 | 10

1.37 ГБ

В этой теме нет новых непрочитанных сообщений. Пленница / The Captive (Атом Эгоян) [триллер, драма, 2014] HDRip, Mvo

Dracon

749 | 25

2.06 ГБ

В этой теме нет новых непрочитанных сообщений. Пленница / The Captive (Атом Эгоян) [триллер, драма, 2014] HDRip, Mvo

Dracon

3428 | 108

1.46 ГБ

В этой теме нет новых непрочитанных сообщений. Пленница / The Captive (Атом Эгоян) [триллер, драма, 2014] BDRip 720p, Mvo

Dracon

533 | 32

6.61 ГБ

В этой теме нет новых непрочитанных сообщений. Torch Runner - Committed To The Ground [2012, Crust, Hardcore, Grindcore, Sludge, MP3]

PriZraK

0 | 1

53.01 МБ


Начать новую тему Ответить на тему  [ 1 сообщение ] 




Для Мосгорсуда, Роскомнадзора и рекламодателей:: mosgorsud-torrent[собачка]yandex.ru