Торрент файл
скачать торрент магнет ссылка Добавлен: 05 июл 2013, 13:00
Размер: 1.46 ГБ
Сидеров: 3
Личеров: 3
Статус: (salma3)
Автор

СообщениеДобавлено: 05 июл 2013, 13:00 

Не в сети
Супермодератор
Аватара пользователя
Дата регистрации:
15 фев 2012, 16:44
Возраст: 27
Спасибо: 5143 / 2090
Сообщения: 17478

Опасное прикосновение / Dangerous Touch

Год выхода: 1994
Жанр: триллер
Режиссер: Лу Даймонд Филлипс

В ролях: Кейт Вернон, Лу Даймонд Филлипс, Роберт Прентисс, Уильям Лоуренс Аллен, Грег Стоун, Берлинда Толберт, Шанти Кан, Макс Гэйл, Стэйси Буржуа, Адам Рорк


О фильме:
Аманда Грейс — роскошная блондинка. Она психоаналитик, автор бестселлеров и ведущая ночного радио — ток — шоу «Спросите Аманду». Под ее профессионально спокойным и невозмутимым внешним обликом скрывается глубоко страстная женщина. С Амандой знакомится таинственный ухажер Мик Ларсен и между ними завязывается страстный роман. Умело используя ее необузданные сексуальные порывы (а в дело идут хлысты, привлечение еще одной девушки в ту же постель и прочие фантазии), Ларсен втягивает Аманду в заговор против ее пациента, главаря одной из преступных группировок. Игра в кошки — мышки, в которую вовлечена Аманда, становится все более и более опасной. Оказавшись между двух огней и подвергаясь шантажу, она балансирует на острие бритвы, и любой неверный шаг может стоить ей жизни.




Страна: США / Cinetel Films, Trimark Pictures
Продолжительность: 01:42:03
Перевод: Профессиональный [многоголосый]

Файл
Качество: DVDRip
Формат файла: AVI
Видео кодек: XviD
Аудио кодек: AC3
Видео: 640x480 (1.33:1), 23.976 fps, XviD ~1451 kbps avg, 0.20 bit/pixel
Аудио: #1: 48 kHz, AC3 2.0 ~192.00 kbps avg (RUS)
Аудио: #2: 48 kHz, AC3 6.0 ~384.00 kbps avg (ENG)



Общее
Полное имя : D:1АААОпасное прикосновение.avi
Формат : AVI
Формат/Информация : Audio Video Interleave
Размер файла : 1,46 Гбайт
Продолжительность : 1 ч. 42 м.
Общий поток : 2042 Кбит/сек
Программа кодирования : VirtualDubMod 1.5.10.2 (build 2540/release)
Библиотека кодирования : VirtualDubMod build 2540/release

Видео
Идентификатор : 0
Формат : MPEG-4 Visual
Профиль формата : Advanced Simple@L5
Параметр BVOP формата : 2
Параметр QPel формата : Нет
Параметр GMC формата : Без точки перехода
Параметр матрицы формата : Default (MPEG)
Режим смешивания : Сжатый битовый поток
Идентификатор кодека : XVID
Идентификатор кодека/Подсказка : XviD
Продолжительность : 1 ч. 42 м.
Битрейт : 1452 Кбит/сек
Ширина : 640 пикселей
Высота : 480 пикселей
Соотношение сторон : 4:3
Частота кадров : 23,976 кадра/сек
Цветовое пространство : YUV
Субдискретизация насыщенности : 4:2:0
Битовая глубина : 8 бит
Тип развёртки : Прогрессивная
Метод сжатия : С потерями
Бит/(Пиксели*Кадры) : 0.197
Размер потока : 1,03 Гбайт (71%)
Библиотека кодирования : XviD 1.2.1 (UTC 2008-12-04)

Аудио #1
Идентификатор : 1
Формат : AC-3
Формат/Информация : Audio Coding 3
Расширение режима : CM (complete main)
Параметр Endianness формата : Big
Идентификатор кодека : 2000
Продолжительность : 1 ч. 42 м.
Вид битрейта : Постоянный
Битрейт : 192 Кбит/сек
Каналы : 2 канала
Расположение каналов : Front: L R
Частота : 48,0 КГц
Битовая глубина : 16 бит
Метод сжатия : С потерями
Размер потока : 140 Мбайт (9%)
Выравнивание : Разделение по промежуткам
Продолжительность промежутка : 42 мс. (1,00 видеокадр)
Время предзагрузки промежутка : 500 мс.

Аудио #2
Идентификатор : 2
Формат : AC-3
Формат/Информация : Audio Coding 3
Расширение режима : CM (complete main)
Параметр Endianness формата : Big
Идентификатор кодека : 2000
Продолжительность : 1 ч. 42 м.
Вид битрейта : Постоянный
Битрейт : 384 Кбит/сек
Каналы : 2 канала
Расположение каналов : Front: L R
Частота : 48,0 КГц
Битовая глубина : 16 бит
Метод сжатия : С потерями
Размер потока : 280 Мбайт (19%)
Выравнивание : Разделение по промежуткам
Продолжительность промежутка : 42 мс. (1,00 видеокадр)
Время предзагрузки промежутка : 500 мс.



Релиз группа:Автор рипа:




реклама партнёра


Вернуться к началу
 Профиль Отправить личное сообщение  
 
   Похожие торренты   Автор   Торрент   Размер 
В этой теме нет новых непрочитанных сообщений. Поцелуй мамочку на ночь / Темное прикосновение / Dark Touch [Ужасы, триллер, 2013] HDTVRip 1080p, Mvo+Dvo

salma3

99 | 4

3.93 ГБ

В этой теме нет новых непрочитанных сообщений. Прикосновение греха / A touch of sin / Tian zhu ding [криминал, драма, 2013] HDRip, avo

Dracon

156 | 7

1.46 ГБ

В этой теме нет новых непрочитанных сообщений. [Black] A Touch Of Ebony / Черное Прикосновение (Vito Van Gogh / Combat Zone) (Skin Diamond, Chanell Heart, Tori Taylor, Adriana Malao, Rico Strong...) [2014 г., Straight, Black, WEB-DL 1080p]

friizze

9 | 10

2.38 ГБ

В этой теме нет новых непрочитанных сообщений. Falcons - Dangerous Life [1994, Melodic Rock,AOR, MP3]

PriZraK

0 | 1

101.68 МБ

В этой теме нет новых непрочитанных сообщений. Опасное трио / Lewis & Clark & George [триллер, комедия, криминал, 1997] DVDRip, Mvo+Avo

salma3

126 | 18

1.37 ГБ

В этой теме нет новых непрочитанных сообщений. Опасное обольщение / Oscura Seduccion [триллер, 2010] BDRip 1080p, Mvo

salma3

55 | 38

8.11 ГБ

В этой теме нет новых непрочитанных сообщений. Опасное погружение / Pressure (Рон Скальпелло) [Триллер, 2015] WEB-DLRip, Dub [iTunes]

Dracon

6 | 0

1.37 ГБ


Начать новую тему Ответить на тему  [ 1 сообщение ] 




Для Мосгорсуда, Роскомнадзора и рекламодателей:: mosgorsud-torrent[собачка]yandex.ru