Торрент файл
скачать торрент магнет ссылка Добавлен: 03 июл 2013, 12:34
Размер: 1.14 ГБ
Сидеров: 3
Личеров: 2
Статус: (salma3)
Автор

СообщениеДобавлено: 03 июл 2013, 12:34 

Не в сети
Супермодератор
Аватара пользователя
Дата регистрации:
15 фев 2012, 16:44
Возраст: 27
Спасибо: 5951 / 2115
Сообщения: 28445

Волшебная долина / Magic Valley

Год выхода: 2011
Жанр: драма
Режиссер: Джаффе Зинн / Jaffe Zinn
В ролях: Скотт Гленн, Кайл Галлнер, Элисон Эллиот, Брэд Хенке, Джонни Льюис, Уилл Эстес

О фильме:
Это история о том, как случай может обрушиться на нас одним сонным деньком и изменить нашу жизнь навсегда.




Страна: США
Продолжительность: 01:25:00
Перевод: Любительский (двухголосый закадровый) [RG "VictoryFilms"]

Файл
Качество: HDRip
Формат файла: AVI
Видео кодек: XviD
Аудио кодек: MP3
Видео: 720x304 (2.37:1), 23.976 fps, XviD build 50 ~1703 kbps avg, 0.32 bit/pixel
Аудио: 44.100 kHz, MPEG Layer 3, 2 ch, ~192.00 kbps avg

Сэмпл
Общее
Полное имя : F:Волшебная долинаMagic Valley.2011.hdrip.xvid. Rg Victory Films.avi
Формат : AVI
Формат/Информация : Audio Video Interleave
Размер файла : 1,14 Гбайт
Продолжительность : 1 ч. 25 м.
Общий поток : 1905 Кбит/сек
Название фильма : Magic Valley
Жанр : Drama
Программа кодирования : VirtualDubMod 1.5.10.2 (build 2540/release)
Формат оригинала/Имя : Movie
Правообладатель : Lady-X
Примечание : Rg Victory Films

Видео
Идентификатор : 0
Формат : MPEG-4 Visual
Профиль формата : Advanced Simple@L5
Параметр BVOP формата : 1
Параметр QPel формата : Нет
Параметр GMC формата : Без точки перехода
Параметр матрицы формата : Default (H.263)
Идентификатор кодека : XVID
Идентификатор кодека/Подсказка : XviD
Продолжительность : 1 ч. 25 м.
Битрейт : 1703 Кбит/сек
Ширина : 720 пикселей
Высота : 304 пикселя
Соотношение сторон : 2,35:1
Частота кадров : 23,976 кадра/сек
Цветовое пространство : YUV
Субдискретизация насыщенности : 4:2:0
Битовая глубина : 8 бит
Тип развёртки : Прогрессивная
Метод сжатия : С потерями
Бит/(Пиксели*Кадры) : 0.325
Размер потока : 1,02 Гбайт (89%)
Библиотека кодирования : XviD 1.2.1 (UTC 2008-12-04)

Аудио
Идентификатор : 1
Формат : MPEG Audio
Версия формата : Version 1
Профиль формата : Layer 3
Идентификатор кодека : 55
Идентификатор кодека/Подсказка : MP3
Продолжительность : 1 ч. 25 м.
Вид битрейта : Постоянный
Битрейт : 192 Кбит/сек
Каналы : 2 канала
Частота : 44,1 КГц
Метод сжатия : С потерями
Размер потока : 117 Мбайт (10%)
Выравнивание : Разделение по промежуткам
Продолжительность промежутка : 42 мс. (1,00 видеокадр)
Время предзагрузки промежутка : 500 мс.




реклама партнёра


Вернуться к началу
 Профиль Отправить личное сообщение  
 
   Похожие торренты   Автор   Торрент   Размер 
В этой теме нет новых непрочитанных сообщений. Кремниевая долина / Силиконовая долина / Silicon Valley [02x01-06 из 10] (Майк Джадж) [2015, комедия, HDTVRip | Кубик в Кубе]

Nickolas3435

80 | 18

1.75 ГБ

В этой теме нет новых непрочитанных сообщений. Тёмная долина / Das finstere Tal / The Dark Valley [вестерн, 2014] HDRip, Mvo [Лицензия]

Dracon

2573 | 51

1.37 ГБ

В этой теме нет новых непрочитанных сообщений. Тёмная долина / Das finstere Tal / The Dark Valley (Андреас Прохазка) [2014, вестерн, HDRip] avo

Nickolas3435

274 | 7

1.47 ГБ

В этой теме нет новых непрочитанных сообщений. Долина / La Vallée / The Valley [драма, 1972] BDRip-AVC, Avo

salma3

29 | 11

1.44 ГБ

В этой теме нет новых непрочитанных сообщений. Долина борьбы / Fight Valley [боевик, драма, 2016] WEB-DLRip, Mvo

salma3

299 | 83

1.37 ГБ

В этой теме нет новых непрочитанных сообщений. Долина ям / Valley of Ditches [драма, криминал, ужасы, триллер, 2017] WEB-DLRip, Mvo

salma3

880 | 101

1.37 ГБ

В этой теме нет новых непрочитанных сообщений. Долина любви / Valley of Love (Гийом Никлу / Guillaume Nicloux) [2015г., Франция, драма, HDTVRip] sub

Alfredovich

2 | 0

508.98 МБ


Начать новую тему Ответить на тему  [ 1 сообщение ] 




Для Мосгорсуда, Роскомнадзора и рекламодателей:: mosgorsud-torrent[собачка]yandex.ru