Торрент файл
скачать торрент магнет ссылка Добавлен: 30 июн 2013, 01:30
Размер: 1.46 ГБ
Сидеров: 11
Личеров: 2
Статус: (salma3)
Автор

СообщениеДобавлено: 30 июн 2013, 01:30 

Не в сети
Супермодератор
Аватара пользователя
Дата регистрации:
15 фев 2012, 16:44
Возраст: 27
Спасибо: 5135 / 2089
Сообщения: 17409

Пророчество 2 / The Prophecy II

Год выхода: 1998
Жанр: мистика, ужасы, триллер
Режиссер: Грег Спенс / Greg Spence

В ролях: Кристофер Уокен, Расселл Вонг, Дженнифер Билз, Бриттэни Мерфи, Гленн Дэнзиг, Эрик Робертс


О фильме:
Война за небеса далека от окончания. Габриэль, самый могущественный из ангелов господних, возвращается на землю. Он не может похвастаться тем, что его положение достаточно прочно, и что армия ангелов ему беспрекословно подчиняется. Его страшная миссия — разрушить и уничтожить самое ценное творение Господа — человечество.




Страна: США
Продолжительность: 01:23:26
Перевод: Профессиональный (многоголосый закадровый)

Файл
Качество: HDRip
Формат файла: AVI
Видео кодек: Xvid
Аудио кодек: AC3
Видео: 720x400, 24 fps, 2049 Kbps kbps avg, 0.29 bit/pixel
Аудио: 48 kHz, AC3 Dolby Digital, 6 ch, ~448.00 kbps avg


Format : AVI
Format/Info : Audio Video Interleave
File size : 1.46 GiB
Duration : 1h 23mn
Overall bit rate : 2 506 Kbps
Writing application : VirtualDubModRus 1.5.10.2 (build 2542/release)
Writing library : VirtualDubMod build 2542/release

Video
ID : 0
Format : MPEG-4 Visual
Format profile : Advanced Simple@L5
Format settings, BVOP : 1
Format settings, QPel : No
Format settings, GMC : No warppoints
Format settings, Matrix : Default (MPEG)
Codec ID : XVID
Codec ID/Hint : XviD
Duration : 1h 23mn
Bit rate : 2 049 Kbps
Width : 720 pixels
Height : 400 pixels
Display aspect ratio : 16:9
Frame rate : 24.000 fps
Color space : YUV
Chroma subsampling : 4:2:0
Bit depth : 8 bits
Scan type : Progressive
Compression mode : Lossy
Bits/(Pixel*Frame) : 0.296
Stream size : 1.19 GiB (82%)
Writing library : XviD 1.2.1 (UTC 2008-12-04)

Audio
ID : 1
Format : AC-3
Format/Info : Audio Coding 3
Mode extension : CM (complete main)
Format settings, Endianness : Big
Codec ID : 2000
Duration : 1h 23mn
Bit rate mode : Constant
Bit rate : 448 Kbps
Channel(s) : 6 channels
Channel positions : Front: L C R, Side: L R, LFE
Sampling rate : 48.0 KHz
Bit depth : 16 bits
Compression mode : Lossy
Stream size : 267 MiB (18%)
Alignment : Split accross interleaves
Interleave, duration : 42 ms (1.00 video frame)
Interleave, preload duration : 500 ms





реклама партнёра


Вернуться к началу
 Профиль Отправить личное сообщение  
 
   Похожие торренты   Автор   Торрент   Размер 
В этой теме нет новых непрочитанных сообщений. Пророчество / The Prophecy [ужасы, боевик, триллер, 1995] BDRip 1080p, Mvo

salma3

16 | 11

6.94 ГБ

В этой теме нет новых непрочитанных сообщений. Исполнитель желаний 4: Пророчество сбылось / Wishmaster 4: The Prophecy Fulfilled [фэнтези, ужасы, 2002] WEB-DL 720p, Mvo

salma3

54 | 9

3.33 ГБ

В этой теме нет новых непрочитанных сообщений. Последнее пророчество / The Garden [Ужасы, триллер, драма, 2006] DVDRip-AVC, Mvo

salma3

57 | 2

1.59 ГБ

В этой теме нет новых непрочитанных сообщений. Звонок / Ring / Ringu [ужасы, триллер, детектив, 1998] HDRip, Mvo

salma3

9 | 2

1.45 ГБ

В этой теме нет новых непрочитанных сообщений. Mystic Prophecy - Best of Prophecy Years [2013, Power, Speed, Thrash Metal, MP3]

PriZraK

0 | 1

118.08 МБ

В этой теме нет новых непрочитанных сообщений. Мумия: Принц Египта / Tale of the Mummy [Ужасы, фантастика, триллер, 1998] HDRip, Dvo

salma3

71 | 7

1.46 ГБ

В этой теме нет новых непрочитанных сообщений. Пловцы / Fak wai nai gai thoe [ужасы, триллер, мистика, драма, 2014] HDRip, dvo

Dracon

1 | 3

1.46 ГБ


Начать новую тему Ответить на тему  [ 1 сообщение ] 




Для Мосгорсуда, Роскомнадзора и рекламодателей:: mosgorsud-torrent[собачка]yandex.ru