Торрент файл
скачать торрент магнет ссылка Добавлен: 30 июн 2013, 01:10
Размер: 1.46 ГБ
Сидеров: 6
Личеров: 4
Статус: (salma3)
Автор

СообщениеДобавлено: 30 июн 2013, 01:10 

Не в сети
Супермодератор
Аватара пользователя
Дата регистрации:
15 фев 2012, 16:44
Возраст: 27
Спасибо: 5121 / 2089
Сообщения: 17296

Суд присяжных / Trial by Jury

Год выхода: 1994
Жанр: триллер, драма, криминал
Режиссер: Хейвуд Гулд

В ролях: Джоанн Уолли, Арманд Ассанте, Гэбриел Бирн, Уильям Хёрт, Кэтлин Куинлен, Маргарет Уиттон, Эд Лотер, Ричард Портноу, Лиза Арринделл Андерсон, Джек Гуолтни, Грэм Джарвис, Уильям Р. Моусес, Джо Сантос, Бо Старр, Брайан Шилович, Стюарт Уитман

О фильме:
Мафиозный босс Пироне обвиняется в убийстве 11 человек. Но хотя улик против него более чем достаточно, он уверен в себе. Накануне процесса его люди убивают главного свидетеля обвинения, и прокурор Грэм должен вести дело на основании косвенных улик. Однако все присяжные и так убеждены в виновности босса мафии. И тогда в дело вступает бывший полицейский Визи, работающий на Пироне. Используя свой богатый профессиональный опыт, Визи запугивает одну из присяжных, Валери Олстон. Ее единственный шанс остаться в живых — научиться играть по смертельно опасным правилам…
и победить.




Страна: США
Продолжительность: 01:46:35
Перевод: Авторский одноголосый (Пронин)

Файл
Качество: DVDRip
Формат файла: AVI
Видео кодек: XviD
Аудио кодек: AC3
Видео: 704x400 (1.76:1), 23.976 fps, XviD ~1426 kbps avg, 0.21 bit/pixel
Аудио: #1: 48 kHz, AC3 1.0 ~128.00 kbps avg (RUS)
Аудио: #2: 48 kHz, AC3 6.0 ~384.00 kbps avg (ENG)


Общее
Полное имя : D:1АААСуд присяжных.avi
Формат : AVI
Формат/Информация : Audio Video Interleave
Размер файла : 1,46 Гбайт
Продолжительность : 1 ч. 46 м.
Общий поток : 1954 Кбит/сек
Программа кодирования : VirtualDubMod 1.5.10.2 (build 2540/release)
Библиотека кодирования : VirtualDubMod build 2540/release

Видео
Идентификатор : 0
Формат : MPEG-4 Visual
Профиль формата : Advanced Simple@L5
Параметр BVOP формата : 2
Параметр QPel формата : Нет
Параметр GMC формата : Без точки перехода
Параметр матрицы формата : Default (MPEG)
Режим смешивания : Сжатый битовый поток
Идентификатор кодека : XVID
Идентификатор кодека/Подсказка : XviD
Продолжительность : 1 ч. 46 м.
Битрейт : 1428 Кбит/сек
Ширина : 704 пикселя
Высота : 400 пикселей
Соотношение сторон : 16:9
Частота кадров : 23,976 кадра/сек
Цветовое пространство : YUV
Субдискретизация насыщенности : 4:2:0
Битовая глубина : 8 бит
Тип развёртки : Прогрессивная
Метод сжатия : С потерями
Бит/(Пиксели*Кадры) : 0.211
Размер потока : 1,06 Гбайт (73%)
Библиотека кодирования : XviD 1.2.1 (UTC 2008-12-04)

Аудио #1
Идентификатор : 1
Формат : AC-3
Формат/Информация : Audio Coding 3
Расширение режима : CM (complete main)
Параметр Endianness формата : Big
Идентификатор кодека : 2000
Продолжительность : 1 ч. 46 м.
Вид битрейта : Постоянный
Битрейт : 128 Кбит/сек
Каналы : 1 канал
Расположение каналов : Front: C
Частота : 48,0 КГц
Битовая глубина : 16 бит
Метод сжатия : С потерями
Размер потока : 97,7 Мбайт (7%)
Выравнивание : Разделение по промежуткам
Продолжительность промежутка : 42 мс. (1,00 видеокадр)
Время предзагрузки промежутка : 500 мс.

Аудио #2
Идентификатор : 2
Формат : AC-3
Формат/Информация : Audio Coding 3
Расширение режима : CM (complete main)
Параметр Endianness формата : Big
Идентификатор кодека : 2000
Продолжительность : 1 ч. 46 м.
Вид битрейта : Постоянный
Битрейт : 384 Кбит/сек
Каналы : 6 каналов
Расположение каналов : Front: L C R, Side: L R, LFE
Частота : 48,0 КГц
Битовая глубина : 16 бит
Метод сжатия : С потерями
Размер потока : 293 Мбайт (20%)
Выравнивание : Разделение по промежуткам
Продолжительность промежутка : 42 мс. (1,00 видеокадр)
Время предзагрузки промежутка : 500 мс.



Релиз группа:Релиз:




реклама партнёра


Вернуться к началу
 Профиль Отправить личное сообщение  
 
   Похожие торренты   Автор   Торрент   Размер 
В этой теме нет новых непрочитанных сообщений. Черный ангел / L'ange noir [триллер, драма, криминал, 1994] DVDRip, Mvo

salma3

56 | 14

1.46 ГБ

В этой теме нет новых непрочитанных сообщений. Нулевой допуск / Zero Tolerance [боевик, триллер, драма, криминал, 1994] DVDRip, Mvo+Avo

salma3

97 | 0

1.46 ГБ

В этой теме нет новых непрочитанных сообщений. Цветок у дороги / The Road Killers [Боевик, триллер, драма, криминал, 1994] DVDRip, Avo

salma3

14 | 1

1.46 ГБ

В этой теме нет новых непрочитанных сообщений. Любовь и 45 калибр / Love and a .45 [триллер, криминал, 1994] DVDRip, Dvo

salma3

141 | 29

1.49 ГБ

В этой теме нет новых непрочитанных сообщений. Любимый / Dulaara [Триллер, криминал, детектив, 1994] DVDRip, Mvo

salma3

21 | 9

2.05 ГБ

В этой теме нет новых непрочитанных сообщений. Испытание огнем / Trial by Fire [Драма, 2008] DVDRip, Mvo

salma3

32 | 2

1.46 ГБ

В этой теме нет новых непрочитанных сообщений. Подрывники / Blown Away [боевик, триллер, драма, криминал, 1994] HDRip, Mvo

salma3

10 | 2

1.46 ГБ


Начать новую тему Ответить на тему  [ 1 сообщение ] 




Для Мосгорсуда, Роскомнадзора и рекламодателей:: mosgorsud-torrent[собачка]yandex.ru