Торрент файл
скачать торрент магнет ссылка Добавлен: 29 июн 2013, 01:26
Размер: 1.45 ГБ
Сидеров: 1
Личеров: 2
Статус: (salma3)
Автор

СообщениеДобавлено: 29 июн 2013, 01:26 

Не в сети
Супермодератор
Аватара пользователя
Дата регистрации:
15 фев 2012, 16:44
Возраст: 27
Спасибо: 5130 / 2089
Сообщения: 17350

Слежка / The Letter

Год выхода: 2012
Жанр: драма, триллер, криминал
Режиссер: Джей Ананья / Jay Anania

В ролях: Вайнона Райдер, Джеймс Франко, Джош Хэмилтон, Марин Айрлэнд, Кэтрин Уотерстон, Ванджелин, Дагмара Доминчук, Лайла Робинс, Джули Энн Эмери, Эйза Дэвис...



О фильме:
История театрального драматурга, в ходе создания своего очередного произведения осознающего, что в ее голове творится что-то неладное. Героине предстоит выяснить, что это — повреждение рассудка, вызванного муками творчества, или чей-то злой умысел. Хотя сделать это ей будет непросто, ночные кошмары и видения делают творческий процесс невыносимым.




Страна: США / RabbitBandini Productions, Sakonnet Capital Partners...
Продолжительность: 01:29:51
Перевод: Профессиональный (многоголосый, закадровый)

Файл
Качество: DVDRip
Формат файла: AVI
Видео кодек: XviD
Аудио кодек: AC3
Видео: XviD; 720x400 (16:9); 1858 Kbps; 23,976 fps; 0,258 bpp
Аудио AC3; 448 Kbps; CBR; 6 ch; 16 bit, 48 kHz


Общее
Полное имя : Slejka.2012.P.DVDRip.avi
Формат : AVI
Формат/Информация : Audio Video Interleave
Размер файла : 1,45 Гбайт
Продолжительность : 1 ч. 29 м.
Общий поток : 2316 Кбит/сек
Программа кодирования : VirtualDubMod 1.5.10.3 | http://www.virtualdub-fr.org || (build 2550/release)
Библиотека кодирования : VirtualDubMod build 2550/release

Видео
Идентификатор : 0
Формат : MPEG-4 Visual
Профиль формата : Advanced Simple@L5
Параметр BVOP формата : 1
Параметр QPel формата : Нет
Параметр GMC формата : Без точки перехода
Параметр матрицы формата : Выборочная
Идентификатор кодека : XVID
Идентификатор кодека/Подсказка : XviD
Продолжительность : 1 ч. 29 м.
Битрейт : 1858 Кбит/сек
Ширина : 720 пикселей
Высота : 400 пикселей
Соотношение сторон : 16:9
Частота кадров : 25,000 кадров/сек
Цветовое пространство : YUV
Субдискретизация насыщенности : 4:2:0
Битовая глубина : 8 бит
Тип развёртки : Прогрессивная
Метод сжатия : С потерями
Бит/(Пиксели*Кадры) : 0.258
Размер потока : 1,17 Гбайт (80%)
Библиотека кодирования : XviD 65

Аудио
Идентификатор : 1
Формат : AC-3
Формат/Информация : Audio Coding 3
Расширение режима : CM (complete main)
Параметр Endianness формата : Big
Идентификатор кодека : 2000
Продолжительность : 1 ч. 29 м.
Вид битрейта : Постоянный
Битрейт : 448 Кбит/сек
Каналы : 6 каналов
Расположение каналов : Front: L C R, Side: L R, LFE
Частота : 48,0 КГц
Битовая глубина : 16 бит
Метод сжатия : С потерями
Размер потока : 288 Мбайт (19%)
Выравнивание : Разделение по промежуткам
Продолжительность промежутка : 40 мс. (1,00 видеокадр)
Время предзагрузки промежутка : 500 мс.


Раздача от:




реклама партнёра


Вернуться к началу
 Профиль Отправить личное сообщение  
 
   Похожие торренты   Автор   Торрент   Размер 
В этой теме нет новых непрочитанных сообщений. Слежка 2: Снова в засаде / Another Stakeout [Боевик, триллер, комедия, криминал, 1993] BDRip 1080p, Mvo+3Avo+Sub

salma3

31 | 2

7.75 ГБ

В этой теме нет новых непрочитанных сообщений. Слежка / Surveillance [Триллер, детектив, 2006] DVDRip, Mvo

salma3

153 | 13

699.33 МБ

В этой теме нет новых непрочитанных сообщений. Letter To The Exiles - Make Amends [2012, Metalcore, MP3]

PriZraK

0 | 1

84.24 МБ

В этой теме нет новых непрочитанных сообщений. Перекрестный огонь / Bad Country [триллер, драма, детектив, боевик, криминал, 2014] DVDRip, Mvo [Лицензия]

Dracon

1455 | 57

1.46 ГБ

В этой теме нет новых непрочитанных сообщений. Смерть со спецэффектами / Freaky Deaky [триллер, криминал, комедия, 2012] HDRip, Mvo [Лицензия]

Dracon

118 | 4

1.46 ГБ

В этой теме нет новых непрочитанных сообщений. Петля времени / Looper [фантастика, боевик, триллер, криминал, 2012] BDRip 720p, Dub+Avo [Лицензия]

salma3

74 | 4

4.37 ГБ

В этой теме нет новых непрочитанных сообщений. Любовное письмо / The Love Letter [фэнтези, мелодрама, 1998] DVDRip, Mvo

salma3

99 | 17

1.37 ГБ


Начать новую тему Ответить на тему  [ 1 сообщение ] 




Для Мосгорсуда, Роскомнадзора и рекламодателей:: mosgorsud-torrent[собачка]yandex.ru