Торрент файл
скачать торрент магнет ссылка Добавлен: 29 июн 2013, 00:49
Размер: 1.46 ГБ
Сидеров: 28
Личеров: 3
Статус: (salma3)
Автор

СообщениеДобавлено: 29 июн 2013, 00:49 

Не в сети
Супермодератор
Аватара пользователя
Дата регистрации:
15 фев 2012, 16:44
Возраст: 27
Спасибо: 5130 / 2089
Сообщения: 17371

Пророчество / The Prophecy

Год выхода: 1995
Жанр: Ужасы, Мистика, Триллер
Режиссер: Грегори Уайден / Gregory Widen

В ролях: Кристофер Уокен, Элиас Котеас, Вирджиния Мэдсен, Эрик Штолц, Эдам Голдберг, Стив Хитнер, Дж. С. Куинн, Морайа Шайнинг-Дав Снайдер, Аманда Пламмер, Вигго Мортенсен


О фильме:
Первая война ангелов против Бога, который отдал свою любовь людям, закончилась поражением мятежников. Но никто не знал, что архангел Гавриил развязал и вторую, которая до сих пор не окончена. Своим секретным оружием Гавриил решил избрать самих людей - ну кто кроме них лучше поднаторел в войне, обмане и т.д.? И вот он ищет на Земле самую черную душу... Самая черная душа оказалась у некого полковника, ранее служившего в Корее и прославившегося там своими зверствами. Но и лояльные Богу ангелы не сидят сложа руки. Ангел Симон отправляется на Землю, чтобы спрятать черную душу полковника (он как раз преставился). Гавриил идет по пятам... Начинают погибать "люди", вернее ангелы. Со стороны полиции подключается некий Томас, который ранее хотел стать священником, но прямо на посвящении круто изменил свое решение. Он-то и поставил все кусочки мозаики на место и понял истинные мотивы участников. А тем временем Симон успевает "вселить" душу полковника в девочку и геройски сложить голову под пытками Гавриила, так и не признавшись в местоположении вышеозначенной души. Но Гавриил тоже не лыком шит, не зря архангел. Он докапывается до истины и назревает великая битва, исходом которой станет дальнейшая судьба человечества. Как ни странно, в ней живейшее участие принял и сам Люцифер, причем не на стороне архангела...




Страна: США
Продолжительность: 01:37:45
Перевод: Профессиональный (многоголосый закадровый) [МиксМедиа]

Файл
Качество: HDRip
Формат файла: AVI
Видео кодек: Xvid
Аудио кодек: AC3
Видео: 720x304, 23,976 fps, ~1932 kbps
Аудио AC3, 2 ch, 192.00 kbps


Общее
Полное имя : prorochstvo.1995.HDRip.avi
Формат : AVI
Формат/Информация : Audio Video Interleave
Размер файла : 1,46 Гбайт
Продолжительность : 1 ч. 37 м.
Общий поток : 2132 Кбит/сек
Программа кодирования : VirtualDubMod 1.5.10.2 (build 2542/release)
Библиотека кодирования : VirtualDubMod build 2542/release

Видео
Идентификатор : 0
Формат : MPEG-4 Visual
Профиль формата : Advanced Simple@L5
Параметр BVOP формата : 1
Параметр QPel формата : Нет
Параметр GMC формата : Без точки перехода
Параметр матрицы формата : Выборочная
Идентификатор кодека : XVID
Идентификатор кодека/Подсказка : XviD
Продолжительность : 1 ч. 37 м.
Битрейт : 1932 Кбит/сек
Ширина : 720 пикс.
Высота : 304 пикс.
Соотношение сторон : 2,35:1
Частота кадров : 23,976 кадр/сек
Цветовое пространство : YUV
Подвыборка цветности : 4:2:0
Битовая глубина : 8 бит
Тип развёртки : Прогрессивная
Метод сжатия : С потерями
Бит/(Пиксели*Кадры) : 0.368
Размер потока : 1,32 Гбайт (91%)
Библиотека кодирования : XviD 73

Аудио
Идентификатор : 1
Формат : AC-3
Формат/Информация : Audio Coding 3
Расширение режима : CM (complete main)
Идентификатор кодека : 2000
Продолжительность : 1 ч. 37 м.
Вид битрейта : Постоянный
Битрейт : 192 Кбит/сек
Канал(ы) : 2 канала(ов)
Расположение каналов : Front: L R
Частота : 48,0 КГц
Битовая глубина : 16 бит
Метод сжатия : С потерями
Размер потока : 133 Мбайт (9%)
Выравнивание : Разделение по промежуткам
Продолжительность промежутка : 42 мс. (1,01 видеокадр)
Время предзагрузки промежутка : 500 ms


Релиз от: Leon-masl




реклама партнёра


Вернуться к началу
 Профиль Отправить личное сообщение  
 
   Похожие торренты   Автор   Торрент   Размер 
В этой теме нет новых непрочитанных сообщений. Пророчество / The Prophecy [ужасы, боевик, триллер, 1995] BDRip 1080p, Mvo

salma3

16 | 11

6.94 ГБ

В этой теме нет новых непрочитанных сообщений. Исполнитель желаний 4: Пророчество сбылось / Wishmaster 4: The Prophecy Fulfilled [фэнтези, ужасы, 2002] WEB-DL 720p, Mvo

salma3

54 | 9

3.33 ГБ

В этой теме нет новых непрочитанных сообщений. Последнее пророчество / The Garden [Ужасы, триллер, драма, 2006] DVDRip-AVC, Mvo

salma3

57 | 2

1.59 ГБ

В этой теме нет новых непрочитанных сообщений. Mystic Prophecy - Best of Prophecy Years [2013, Power, Speed, Thrash Metal, MP3]

PriZraK

0 | 1

118.08 МБ

В этой теме нет новых непрочитанных сообщений. Пловцы / Fak wai nai gai thoe [ужасы, триллер, мистика, драма, 2014] HDRip, dvo

Dracon

1 | 2

1.46 ГБ

В этой теме нет новых непрочитанных сообщений. Призрак дома на холме / The Haunting [Мистика, ужасы, триллер, 1999] HDRip, Mvo

salma3

116 | 5

1.46 ГБ

В этой теме нет новых непрочитанных сообщений. 13 грехов / 13 Sins (Даниэль Штамм) [2014, Триллер, ужасы, мистика, HDRip-AVC] avo

Nickolas3435

540 | 9

1.61 ГБ


Начать новую тему Ответить на тему  [ 1 сообщение ] 




Для Мосгорсуда, Роскомнадзора и рекламодателей:: mosgorsud-torrent[собачка]yandex.ru