Торрент файл
скачать торрент магнет ссылка Добавлен: 27 июн 2013, 16:04
Размер: 713.2 МБ
Сидеров: 2
Личеров: 2
Автор

СообщениеДобавлено: 27 июн 2013, 16:04 

Не в сети
Зам. Админа
Аватара пользователя
Дата регистрации:
02 дек 2010, 12:39
Спасибо: 12623 / 214
Сообщения: 28012


Страна: США
Жанр: комедия, триллер, мелодрама
Год выпуска: 2011
Продолжительность: 1:38:34

Перевод: Любительский (одноголосный) (Хэм)
Cубтитры: нет
Режиссер: Дерек Линдеман / Derek Lindeman

В ролях: Дженсен Бучер, Дерек Линдеман, Ник Трой, Брайан Галлахер

Описание: В Филадельфии декабрь. Пока все готовятся к праздникам, творческий городской маньяк начинает поиски финальной 12-ой девушки, чтобы закончить свой кровавый "календарь". Убийца обещает, что последняя жертва будет особенной и не похожей на остальных. Возможно на эту роль подойдёт некая Ари, официантка местной закусочной.



Сэмпл:

Качество видео: WEB-DLRip
Формат видео: AVI
Видео: XVID, 640x272, 2,35:1, 23,976 fps, 874 kbps
Аудио: MP3, 48 kHz, 128 kbps, 2.0
General
Complete name : D:MovsMiss.December.2011.Rus.avi
Format : AVI
Format/Info : Audio Video Interleave
File size : 713 MiB
Duration : 1h 38mn
Overall bit rate : 1 011 Kbps
Writing application : VirtualDubMod 1.5.4.1 (build 2178/release)
Writing library : VirtualDub build 32817/release

Video
ID : 0
Format : MPEG-4 Visual
Format profile : Advanced Simple@L5
Format settings, BVOP : No
Format settings, QPel : No
Format settings, GMC : No warppoints
Format settings, Matrix : Custom
Codec ID : XVID
Codec ID/Hint : XviD
Duration : 1h 38mn
Bit rate : 874 Kbps
Width : 640 pixels
Height : 272 pixels
Display aspect ratio : 2.35:1
Frame rate : 23.976 fps
Color space : YUV
Chroma subsampling : 4:2:0
Bit depth : 8 bits
Scan type : Progressive
Compression mode : Lossy
Bits/(Pixel*Frame) : 0.209
Stream size : 616 MiB (86%)
Writing library : XviD 1.2.1 (UTC 2008-12-04)

Audio
ID : 1
Format : MPEG Audio
Format version : Version 1
Format profile : Layer 3
Mode : Joint stereo
Mode extension : MS Stereo
Codec ID : 55
Codec ID/Hint : MP3
Duration : 1h 38mn
Bit rate mode : Constant
Bit rate : 128 Kbps
Channel(s) : 2 channels
Sampling rate : 48.0 KHz
Compression mode : Lossy
Stream size : 90.3 MiB (13%)
Alignment : Split accross interleaves
Interleave, duration : 42 ms (1.00 video frame)
Interleave, preload duration : 500 ms






реклама партнёра


Вернуться к началу
 Профиль  
 
   Похожие торренты   Автор   Торрент   Размер 
В этой теме нет новых непрочитанных сообщений. Девочки из календаря / Calendar Girls [драма, комедия, 2003] DVDRip, Mvo [НТВ+]

salma3

32 | 3

1.46 ГБ

В этой теме нет новых непрочитанных сообщений. Девушка в беде / The Girl Is in Trouble [боевик, триллер, криминал, 2015] WEB-DLRip, dvo

Dracon

1070 | 75

1.46 ГБ

В этой теме нет новых непрочитанных сообщений. Девушка в поезде / The Girl on the Train [триллер, драма, детектив, 2016] WEB-DLRip-AVC, Dub [iTunes]

salma3

2024 | 556

1.4 ГБ

В этой теме нет новых непрочитанных сообщений. Swimsuit Calendar Girls 2016 / Девочки в Купальниках из Календаря 2016 (2016) WEB-DL

amadei

2 | 1

1.21 ГБ

В этой теме нет новых непрочитанных сообщений. Девушка в поезде / The Girl on the Train (триллер, драма, детектив, 2016) WEB-DLRip от Scarabey | iTunes

marya111

681 | 123

747.24 МБ

В этой теме нет новых непрочитанных сообщений. Секс и незамужняя девушка / Sex and the single girl [Комедия, Мелодрама, 1964] WEBRip 1080p, Dvo

salma3

67 | 35

10.54 ГБ

В этой теме нет новых непрочитанных сообщений. Девушка моего лучшего друга / My Best Friend's Girl [мелодрама, комедия, 2008] BDRip 720p, Dub+Sub

salma3

13 | 3

4.5 ГБ


Начать новую тему Ответить на тему  [ 1 сообщение ] 




Для Мосгорсуда, Роскомнадзора и рекламодателей:: mosgorsud-torrent[собачка]yandex.ru