Торрент файл
скачать торрент магнет ссылка Добавлен: 26 июн 2013, 22:13
Размер: 1.47 ГБ
Сидеров: 37
Личеров: 5
Статус: (salma3)
Автор

СообщениеДобавлено: 26 июн 2013, 22:13 

Не в сети
Супермодератор
Аватара пользователя
Дата регистрации:
15 фев 2012, 16:44
Возраст: 27
Спасибо: 6222 / 2125
Сообщения: 33478

Под прицелом / Стальной кулак / Under the Gun

Год выхода: 1995
Жанр: боевик
Режиссер: Мэттью Джордж

В ролях: Ричард Нортон, Кэти Лонг, Джейн Бэдлер, Питер Линдси, Роберт Брюс, Дэвид Серафин, Рон Врикен, Тино Себерано, Адам Хэддрик, Сэм Греко


О фильме:
Френк Торренс в тяжелом положении. Он забрал деньги, данные за героин, который он должен был продать. Он продает ночной клуб, не уведомив об этом мафию, имеющую в клубе свой интерес. При таких обстоятельствах на хвосте у него еще сидит и полиция. Мистер Торренс хочет улететь в Мексику, но ему этого сделать не дают…





Страна: Австралия
Продолжительность: 01:30:52
Перевод: Авторский одноголосый (Визгунов, Сербин, Санаев)

Файл
Качество: DVDRip
Формат файла: AVI
Видео кодек: XviD
Аудио кодек: AC3
Видео: 720x544 (1.32:1), 23.976 fps, XviD ~1491 kbps avg, 0.16 bit/pixel
Аудио: #1: 48 kHz, AC3 2.0 ~192.00 kbps avg (RUS)
Аудио: #2: 48 kHz, AC3 2.0 ~192.00 kbps avg (RUS)
Аудио: #3: 48 kHz, AC3 2.0 ~192.00 kbps avg (RUS)
Аудио: #4: 48 kHz, AC3 6.0 ~224.00 kbps avg (ENG)


Общее
Полное имя : D:1АААПод прицелом.avi
Формат : AVI
Формат/Информация : Audio Video Interleave
Размер файла : 1,47 Гбайт
Продолжительность : 1 ч. 30 м.
Общий поток : 2317 Кбит/сек
Программа кодирования : VirtualDubMod 1.5.10.2 (build 2540/release)
Библиотека кодирования : VirtualDubMod build 2540/release

Видео
Идентификатор : 0
Формат : MPEG-4 Visual
Профиль формата : Advanced Simple@L5
Параметр BVOP формата : 2
Параметр QPel формата : Нет
Параметр GMC формата : Без точки перехода
Параметр матрицы формата : Default (MPEG)
Режим смешивания : Сжатый битовый поток
Идентификатор кодека : XVID
Идентификатор кодека/Подсказка : XviD
Продолжительность : 1 ч. 30 м.
Битрейт : 1493 Кбит/сек
Ширина : 720 пикселей
Высота : 544 пикселя
Соотношение сторон : 4:3
Частота кадров : 23,976 кадра/сек
Цветовое пространство : YUV
Субдискретизация насыщенности : 4:2:0
Битовая глубина : 8 бит
Тип развёртки : Прогрессивная
Метод сжатия : С потерями
Бит/(Пиксели*Кадры) : 0.159
Размер потока : 971 Мбайт (64%)
Библиотека кодирования : XviD 1.2.1 (UTC 2008-12-04)

Аудио #1
Идентификатор : 1
Формат : AC-3
Формат/Информация : Audio Coding 3
Расширение режима : CM (complete main)
Параметр Endianness формата : Big
Идентификатор кодека : 2000
Продолжительность : 1 ч. 30 м.
Вид битрейта : Постоянный
Битрейт : 192 Кбит/сек
Каналы : 2 канала
Расположение каналов : Front: L R
Частота : 48,0 КГц
Битовая глубина : 16 бит
Метод сжатия : С потерями
Размер потока : 125 Мбайт (8%)
Выравнивание : Разделение по промежуткам
Продолжительность промежутка : 42 мс. (1,00 видеокадр)
Время предзагрузки промежутка : 500 мс.

Аудио #2
Идентификатор : 2
Формат : AC-3
Формат/Информация : Audio Coding 3
Профиль формата : Dolby Digital
Расширение режима : CM (complete main)
Параметр Endianness формата : Big
Идентификатор кодека : 2000
Продолжительность : 1 ч. 30 м.
Вид битрейта : Постоянный
Битрейт : 192 Кбит/сек
Каналы : 2 канала
Расположение каналов : Front: L R
Частота : 48,0 КГц
Битовая глубина : 16 бит
Метод сжатия : С потерями
Размер потока : 125 Мбайт (8%)
Выравнивание : Разделение по промежуткам
Продолжительность промежутка : 42 мс. (1,00 видеокадр)
Время предзагрузки промежутка : 500 мс.

Аудио #3
Идентификатор : 3
Формат : AC-3
Формат/Информация : Audio Coding 3
Расширение режима : CM (complete main)
Параметр Endianness формата : Big
Идентификатор кодека : 2000
Продолжительность : 1 ч. 30 м.
Вид битрейта : Постоянный
Битрейт : 192 Кбит/сек
Каналы : 2 канала
Расположение каналов : Front: L R
Частота : 48,0 КГц
Битовая глубина : 16 бит
Метод сжатия : С потерями
Размер потока : 125 Мбайт (8%)
Выравнивание : Разделение по промежуткам
Продолжительность промежутка : 42 мс. (1,00 видеокадр)
Время предзагрузки промежутка : 500 мс.

Аудио #4
Идентификатор : 4
Формат : AC-3
Формат/Информация : Audio Coding 3
Расширение режима : CM (complete main)
Параметр Endianness формата : Big
Идентификатор кодека : 2000
Продолжительность : 1 ч. 30 м.
Вид битрейта : Постоянный
Битрейт : 224 Кбит/сек
Каналы : 2 канала
Расположение каналов : Front: L R
Частота : 48,0 КГц
Битовая глубина : 16 бит
Метод сжатия : С потерями
Размер потока : 146 Мбайт (10%)
Выравнивание : Разделение по промежуткам
Продолжительность промежутка : 42 мс. (1,00 видеокадр)
Время предзагрузки промежутка : 500 мс.



Релиз группа:Автор рипа:




реклама партнёра


Вернуться к началу
 Профиль Отправить личное сообщение  
 
   Похожие торренты   Автор   Торрент   Размер 
В этой теме нет новых непрочитанных сообщений. Под прицелом / Стальной кулак / Under the Gun [Боевик, 1995] DVDRip-AVC, Avo

salma3

47 | 20

2.15 ГБ

В этой теме нет новых непрочитанных сообщений. Кровавый кулак 6: Нулевая отметка / Bloodfist VI: Ground Zero [боевик, 1995] DVDRip, Mvo

salma3

39 | 12

1.06 ГБ

В этой теме нет новых непрочитанных сообщений. Кровавый кулак 7: Охота на человека / Bloodfist VII: Manhunt [Боевик, триллер, 1995] DVDRip, Dvo

salma3

55 | 20

1.07 ГБ

В этой теме нет новых непрочитанных сообщений. Кулак Северной Звезды / Fist of the North Star [Боевик, фантастика, постапокалипсис, 1995] DVDRip-AVC, Avo

salma3

22 | 2

2.25 ГБ

В этой теме нет новых непрочитанных сообщений. Кулак Северной Звезды / Fist of the North Star [фантастика, фэнтези, боевик, триллер, 1995] DVDRip, Avo

salma3

19 | 4

1.46 ГБ

В этой теме нет новых непрочитанных сообщений. Полночный стрелок / Луна под прицелом / Gunfighter's Moon [боевик, драма, мелодрама, вестерн, 1995] VHSRip, Avo

salma3

44 | 31

1.15 ГБ

В этой теме нет новых непрочитанных сообщений. Кровавый кулак 6: Нулевая отметка / Bloodfist VI: Ground Zero [боевик, 1995] DVD5, Mvo

salma3

16 | 8

3.83 ГБ


Начать новую тему Ответить на тему  [ 1 сообщение ] 




Для Мосгорсуда, Роскомнадзора и рекламодателей:: mosgorsud-torrent[собачка]yandex.ru