Торрент файл
скачать торрент магнет ссылка Добавлен: 26 июн 2013, 21:27
Размер: 1.37 ГБ
Сидеров: 11
Личеров: 4
Статус: (salma3)
Автор

СообщениеДобавлено: 26 июн 2013, 21:27 

В сети
Супермодератор
Аватара пользователя
Дата регистрации:
15 фев 2012, 16:44
Возраст: 27
Спасибо: 5143 / 2090
Сообщения: 17513

Мятеж / Riot

Год выхода: 1996
Жанр: боевик
Режиссер: Джозеф Мерхи

В ролях: Гэри Дэниелс, Шугар Рэй Леонард, Пэйдж Роулэнд, Патрик Килпатрик, Кеннет Тайгар, Декс Эллиот Сандерс, Чарльз Нэпьер, Эддисон Рэндалл, Том Берри, Тим Колсери, Скотт Шепард, Рон Баркер, Тим Колсери, Том Бэрри, Ивэн Лайонел, Брайан Нахас, Марко Эрнандез, Дарвин Карсон, Эддисон Рэндалл, Анастасия Сакеларис



О фильме:
Милый рождественский семейный праздник превратится в кровавый бушующий ад, когда наступит 24 декабря 1999 года. Посреди огня, страха и ненависти, которыми заполнятся улицы огромного мегаполиса в эту последнюю рождественскую ночь уходящего тысячелетия, офицер элитного подразделения ВВС Шейн Олкотт отправился на поиски похищенной дочери британского посла. Один против до зубов вооруженных убийц из городских моторизованных банд и ирландских террористических отрядов...





Страна: США, PM Entertainment Group Inc.
Продолжительность: 01:33:25
Перевод: Профессиональный [многоголосый]

Файл
Качество: DVDRip
Формат файла: AVI
Видео кодек: XviD
Аудио кодек: AC3
Видео: 720x544 (1.32:1), 23.976 fps, XviD ~1661 kbps avg, 0.18 bit/pixel
Аудио: #1: 48 kHz, AC3 2.0 ~192.00 kbps avg
Аудио: #2: 48 kHz, AC3 6.0 ~224.00 kbps avg

Общее
Полное имя : D:1АААМятеж.avi
Формат : AVI
Формат/Информация : Audio Video Interleave
Размер файла : 1,37 Гбайт
Продолжительность : 1 ч. 33 м.
Общий поток : 2093 Кбит/сек
Программа кодирования : VirtualDubMod 1.5.10.2 (build 2540/release)
Библиотека кодирования : VirtualDubMod build 2540/release

Видео
Идентификатор : 0
Формат : MPEG-4 Visual
Профиль формата : Advanced Simple@L5
Параметр BVOP формата : 2
Параметр QPel формата : Нет
Параметр GMC формата : Без точки перехода
Параметр матрицы формата : Default (MPEG)
Режим смешивания : Сжатый битовый поток
Идентификатор кодека : XVID
Идентификатор кодека/Подсказка : XviD
Продолжительность : 1 ч. 33 м.
Битрейт : 1662 Кбит/сек
Ширина : 720 пикселей
Высота : 544 пикселя
Соотношение сторон : 4:3
Частота кадров : 23,976 кадра/сек
Цветовое пространство : YUV
Субдискретизация насыщенности : 4:2:0
Битовая глубина : 8 бит
Тип развёртки : Прогрессивная
Метод сжатия : С потерями
Бит/(Пиксели*Кадры) : 0.177
Размер потока : 1,08 Гбайт (79%)
Библиотека кодирования : XviD 1.2.1 (UTC 2008-12-04)

Аудио #1
Идентификатор : 1
Формат : AC-3
Формат/Информация : Audio Coding 3
Расширение режима : CM (complete main)
Параметр Endianness формата : Big
Идентификатор кодека : 2000
Продолжительность : 1 ч. 33 м.
Вид битрейта : Постоянный
Битрейт : 192 Кбит/сек
Каналы : 2 канала
Расположение каналов : Front: L R
Частота : 48,0 КГц
Битовая глубина : 16 бит
Метод сжатия : С потерями
Размер потока : 128 Мбайт (9%)
Выравнивание : Разделение по промежуткам
Продолжительность промежутка : 42 мс. (1,00 видеокадр)
Время предзагрузки промежутка : 500 мс.

Аудио #2
Идентификатор : 2
Формат : AC-3
Формат/Информация : Audio Coding 3
Расширение режима : CM (complete main)
Параметр Endianness формата : Big
Идентификатор кодека : 2000
Продолжительность : 1 ч. 33 м.
Вид битрейта : Постоянный
Битрейт : 224 Кбит/сек
Каналы : 2 канала
Расположение каналов : Front: L R
Частота : 48,0 КГц
Битовая глубина : 16 бит
Метод сжатия : С потерями
Размер потока : 150 Мбайт (11%)
Выравнивание : Разделение по промежуткам
Продолжительность промежутка : 42 мс. (1,00 видеокадр)
Время предзагрузки промежутка : 500 мс.




Релиз группа:Автор рипа:




реклама партнёра


Вернуться к началу
 Профиль Отправить личное сообщение  
 
   Похожие торренты   Автор   Торрент   Размер 
В этой теме нет новых непрочитанных сообщений. Мятеж / Riot [Боевик, 1996] DVDRip, Avo

salma3

30 | 0

1.45 ГБ

В этой теме нет новых непрочитанных сообщений. Мятеж в космосе / Штурм четвертого купола / Assault on Dome 4 [Фантастика, боевик, 1996] DVDRip, Avo

salma3

14 | 4

1.37 ГБ

В этой теме нет новых непрочитанных сообщений. Quiet Riot - Quiet Riot 10 [2014, Hard Rock,Heavy Metal, MP3]

PriZraK

14 | 2

107.25 МБ

В этой теме нет новых непрочитанных сообщений. Бунт / Riot [Боевик, 2015] HDRip, dvo

Dracon

709 | 28

1.37 ГБ

В этой теме нет новых непрочитанных сообщений. Ghost Town Riot - Ghost Town Riot [2013, Crossover Progressive Rock, MP3]

PriZraK

0 | 3

96.6 МБ

В этой теме нет новых непрочитанных сообщений. Джек Стоун / Riot [боевик, 2015] HDRip, Mvo [Официальное]

salma3

1197 | 39

1.37 ГБ

В этой теме нет новых непрочитанных сообщений. Джек Стоун / Riot [Боевик, 2015] BDRip 1080p, Mvo [Официальный звук]

salma3

203 | 45

9.36 ГБ


Начать новую тему Ответить на тему  [ 1 сообщение ] 




Для Мосгорсуда, Роскомнадзора и рекламодателей:: mosgorsud-torrent[собачка]yandex.ru