Торрент файл
скачать торрент магнет ссылка Добавлен: 26 июн 2013, 12:23
Размер: 1.6 ГБ
Сидеров: 0
Личеров: 1
Статус: (salma3)
Автор

СообщениеДобавлено: 26 июн 2013, 12:23 

Не в сети
Супермодератор
Аватара пользователя
Дата регистрации:
15 фев 2012, 16:44
Возраст: 27
Спасибо: 5121 / 2089
Сообщения: 17282

Летние игры / Summer Games

Страна: Швейцария
Год выхода: 2011
Жанр: драма
Режиссер: Роландо Колла / Rolando Colla

В ролях: Фиорелла Кампанелла, Армандо Кондалуччи, Алессия Барела, Антонио Мероне, Роберта Фоссиле, Марко д'Ораци, Аарон Хиц, Моника Червини, Франческо Хуанг, Чиара Сколари

О фильме:
История о взрослой и подростковой паре во время краткого летнего отдыха у моря. Родители Ника запутались в своих непростых отношениях, и постоянно ссорятся, а их 12-летний сын пытается выразить свои эмоции с помощью насилия в играх с другими детьми. Он хочет научить Мари, которая является его сверстницей и страдает от своих отношений с отцом, ничего не чувствовать. Их дружба постепенно перерастает в первую любовь...




Страна: Швейцария
Продолжительность: 01:40:58
Перевод: авторский (одноголосый) [Вячеслав Прошин]
Cубтитры: русские, английские

Файл
Качество: DVDRip
Формат файла: AVI
Видео кодек: DivX
Аудио кодек: MP3
Видео: DivX5, 720x400 (16:9), 1997 kbps, 25 fps
Аудио: MPEG Layer 3, 48 kHz, 2 ch, 128.00 kbps avg (VO)
Аудио 2: MPEG Layer 3, 48 kHz, 2 ch, 128.00 kbps avg (orig.)




General
Complete name : C:TorrentsSummerGamesGiochi.d'estate.rus.ita.avi
Format : AVI
Format/Info : Audio Video Interleave
File size : 1.60 GiB
Duration : 1h 40mn
Overall bit rate : 2 268 Kbps
Writing application : VirtualDubMod 1.5.10.2 (build 2540/release)
Writing library : VirtualDubMod build 2540/release

Video
ID : 0
Format : MPEG-4 Visual
Format settings, BVOP : No
Format settings, QPel : No
Format settings, GMC : No warppoints
Format settings, Matrix : Default (H.263)
Codec ID : DX50
Codec ID/Hint : DivX 5
Duration : 1h 40mn
Bit rate : 1 998 Kbps
Width : 720 pixels
Height : 400 pixels
Display aspect ratio : 16:9
Frame rate : 25.000 fps
Color space : YUV
Chroma subsampling : 4:2:0
Bit depth : 8 bits
Scan type : Progressive
Compression mode : Lossy
Bits/(Pixel*Frame) : 0.277
Stream size : 1.41 GiB (88%)
Writing library : DivX 6.6.1.4

Audio #1
ID : 1
Format : MPEG Audio
Format version : Version 1
Format profile : Layer 3
Mode : Joint stereo
Mode extension : MS Stereo
Codec ID : 55
Codec ID/Hint : MP3
Duration : 1h 40mn
Bit rate mode : Constant
Bit rate : 128 Kbps
Channel(s) : 2 channels
Sampling rate : 44.1 KHz
Compression mode : Lossy
Stream size : 92.4 MiB (6%)
Alignment : Split accross interleaves
Interleave, duration : 40 ms (1.00 video frame)
Interleave, preload duration : 500 ms

Audio #2
ID : 2
Format : MPEG Audio
Format version : Version 1
Format profile : Layer 3
Mode : Joint stereo
Mode extension : MS Stereo
Codec ID : 55
Codec ID/Hint : MP3
Duration : 1h 40mn
Bit rate mode : Constant
Bit rate : 128 Kbps
Channel(s) : 2 channels
Sampling rate : 44.1 KHz
Compression mode : Lossy
Stream size : 92.4 MiB (6%)
Alignment : Split accross interleaves
Interleave, duration : 40 ms (1.00 video frame)
Interleave, preload duration : 500 ms
Writing library : LAME3.98.2





реклама партнёра


Вернуться к началу
 Профиль Отправить личное сообщение  
 
   Похожие торренты   Автор   Торрент   Размер 
В этой теме нет новых непрочитанных сообщений. Летние любовники / Summer lovers [драма, мелодрама, комедия, 1982] BDRemux 1080p, Dvo+Avo+Sub

salma3

8 | 2

25.09 ГБ

В этой теме нет новых непрочитанных сообщений. Голодные игры: Дилогия / The Hunger Games: Dilogy [драма, боевик, триллер, фантастика, 2011-2013] BDRip, Dub [Лицензия]

salma3

57 | 10

5.83 ГБ

В этой теме нет новых непрочитанных сообщений. Правила игры (Холостяцкие игры) / Bachelor Games [ужасы, боевик, триллер, комедия, приключения, 2016] HDRip, Avo

salma3

199 | 9

1.28 ГБ

В этой теме нет новых непрочитанных сообщений. Игры преисподней / Mine Games [триллер, 2012] DVDRip, Mvo

Dracon

1043 | 27

1.45 ГБ

В этой теме нет новых непрочитанных сообщений. Военные игры / War Games: At the End of the Day [Триллер, боевик, ужасы, 2011] DVD5, Mvo

salma3

15 | 11

4.35 ГБ

В этой теме нет новых непрочитанных сообщений. Военные игры / War Games: At the End of the Day [триллер, ужасы, боевик, 2011] HDRip, Mvo [Лицензия]

salma3

29 | 12

1.46 ГБ

В этой теме нет новых непрочитанных сообщений. Игры киллеров / Assassination Games [Боевик, триллер, 2011] BDRip 1080p, Dub+Sub [лицензия]

salma3

46 | 7

7.09 ГБ


Начать новую тему Ответить на тему  [ 1 сообщение ] 




Для Мосгорсуда, Роскомнадзора и рекламодателей:: mosgorsud-torrent[собачка]yandex.ru