Торрент файл
скачать торрент магнет ссылка Добавлен: 26 июн 2013, 11:28
Размер: 1.45 ГБ
Сидеров: 97
Личеров: 13
Статус: (salma3)
Автор

СообщениеДобавлено: 26 июн 2013, 11:28 

Не в сети
Зам. Админа
Аватара пользователя
Дата регистрации:
02 дек 2010, 12:39
Спасибо: 12623 / 214
Сообщения: 28012

Страна: США
Жанр: боевик, триллер, криминал
Год выпуска: 2012
Продолжительность: 01:31:33
Перевод: Профессиональный (дублированный) | Лицензия
Cубтитры: нет

Режиссер: Уолтер Хилл / Walter Hill

В ролях: Сильвестр Сталлоне, Санг Кенг, Сара Шахи, Адевале Акинойе-Агбаже, Джейсон Момоа, Кристиан Слэйтер, Джон Седа, Холт МакКэллани, Брайан Ван Холт, Вероника Розати

Описание: Киллер из Нового Орлеана объединяется с молодым полицейским из Нью-Йорка, расследуя дело, которое выводит их с мрачных задворок Нового Орлеана в светлые коридоры правительственных зданий в Вашингтоне. Необычный дуэт формируется в результате двух жестоких убийств. Герои убирают всех, кто стоит у них на пути, и готовы пожертвовать всем, чтобы отомстить.

Качество видео: HDRip
Формат видео: AVI
Видео кодек: XviD
Аудио кодек: AC3
Видео: 720x384 (1.88:1), 23.976 fps, XviD build 50 ~1817 kbps avg, 0.27 bit/pixel
Аудио: 48 kHz, AC3 Dolby Digital, 3/2 (L,C,R,l,r) + LFE ch, ~448 kbps

Раздача от:


D:Мои рипыBullet.to.the.Head.2012.HDRip.1.45 [YTN]_by_dexter_lex.avi
General
Complete name : D:Мои рипыBullet.to.the.Head.2012.HDRip.1.45 [YTN]_by_dexter_lex.avi
Format : AVI
Format/Info : Audio Video Interleave
File size : 1.45 GiB
Duration : 1h 31mn
Overall bit rate : 2 274 Kbps
Writing application : VirtualDubMod 1.5.10.3 | http://www.virtualdub-fr.org || (build 2550/release)
Writing library : VirtualDubMod build 2550/release
Video #0
ID : 0
Format : MPEG-4 Visual
Format profile : Advanced Simple@L5
Format settings, BVOP : 1
Format settings, QPel : No
Format settings, GMC : No warppoints
Format settings, Matrix : Custom
Codec ID : XVID
Codec ID/Hint : XviD
Duration : 1h 31mn
Bit rate : 1 817 Kbps
Width : 720 pixels
Height : 384 pixels
Display aspect ratio : 1.88:1
Frame rate : 23.976 fps
Color space : YUV
Chroma subsampling : 4:2:0
Bit depth : 8 bits
Scan type : Progressive
Compression mode : Lossy
Bits/(Pixel*Frame) : 0.274
Stream size : 1.16 GiB (80%)
Writing library : XviD 1.2.1 (UTC 2008-12-04)
Audio #1
ID : 1
Format : AC-3
Format/Info : Audio Coding 3
Mode extension : CM (complete main)
Format settings, Endianness : Big
Codec ID : 2000
Duration : 1h 31mn
Bit rate mode : Constant
Bit rate : 448 Kbps
Channel(s) : 6 channels
Channel positions : Front: L C R, Side: L R, LFE
Sampling rate : 48.0 KHz
Bit depth : 16 bits
Compression mode : Lossy
Stream size : 293 MiB (20%)
Alignment : Split accross interleaves
Interleave, duration : 42 ms (1.00 video frame)
Interleave, preload duration : 500 ms





реклама партнёра


Вернуться к началу
 Профиль  
 
   Похожие торренты   Автор   Торрент   Размер 
В этой теме нет новых непрочитанных сообщений. Код доступа «София» / Sofia / Assassin's Bullet [боевик, триллер, драма, 2012] BDRip 1080p, Mvo

salma3

34 | 5

8.93 ГБ

В этой теме нет новых непрочитанных сообщений. Механик: Воскрешение / Mechanic: Resurrection [боевик, триллер, криминал, 2016] HDRip, Dub+Sub [Лицензия]

salma3

227 | 54

746.68 МБ

В этой теме нет новых непрочитанных сообщений. Джoн Уиk 2 / Jоhn Wick: Chаpter Two [боевик, триллер, криминал, 2017] HDRip, Dub [лицензия]

salma3

155 | 30

2.05 ГБ

В этой теме нет новых непрочитанных сообщений. Гнев / Tokarev (Пако Кабесас) [Боевик, триллер, криминал, 2014] HDRip, Dub [Лицензия]

Dracon

2110 | 92

1.46 ГБ

В этой теме нет новых непрочитанных сообщений. На гребне волны / Point Break [боевик, триллер, криминал, спорт, 2015] HDRip, Dub [лицензия]

salma3

4376 | 163

2.19 ГБ

В этой теме нет новых непрочитанных сообщений. На гребне волны / Point Break [боевик, триллер, криминал, спорт, 2015] HDRip, Dub [лицензия]

salma3

11335 | 580

1.46 ГБ

В этой теме нет новых непрочитанных сообщений. На гребне волны / Point Break [Боевик, триллер, криминал, спорт, 2015] HDRip, Dub [Лицензия]

salma3

14 | 5

748.72 МБ


Начать новую тему Ответить на тему  [ 1 сообщение ] 




Для Мосгорсуда, Роскомнадзора и рекламодателей:: mosgorsud-torrent[собачка]yandex.ru