Торрент файл
скачать торрент магнет ссылка Добавлен: 26 июн 2013, 09:39
Размер: 1.45 ГБ
Сидеров: 296
Личеров: 34
Статус: (salma3)
Автор

СообщениеДобавлено: 26 июн 2013, 09:39 

Не в сети
Зам. Админа
Аватара пользователя
Дата регистрации:
02 дек 2010, 12:39
Спасибо: 12461 / 214
Сообщения: 27968


Страна: США
Жанр: фэнтези, мелодрама
Год выпуска: 2011
Продолжительность: 01:23:13

Перевод: Профессиональный (дублированный) Disney
Cубтитры: нет
Оригинальная аудиодорожка: английский

Режиссер: Джеймс Хейман / James Hayman

В ролях: Эми Смарт, Марк-Пол Госселаар, Джэйн Иствуд, Мэри Лонг, Бенджамин Эйрс, Питер МакНейл, Ричард Фицпатрик, Дженнифер Кидд, Джо Маклеод, Лаура Мията

Описание: Пытаясь вернуть своего бывшего парня, героиня сама портит свидание вслепую, которое было у нее назначено с симпатичным парнем по имени Майлз. По странной иронии судьбы, с полуночным боем часов она получает шанс пережить Сочельник еще раз. Эта уникальная возможность не только может помочь ей исправить оплошность, допущенную на первом свидании, но и осознать, какая у нее, на самом деле, замечательная семья и прекрасные друзья...



Доп. информация: Звук взят из SATRip c канала Disney. На канале показали урезанную версию, поэтому местами перевод отсутствует.

Сэмпл:

Качество видео: HDTVRip
Формат видео: AVI
Видео: MPEG4, XviD, 720x400 (16/9), 25.000 fps, 2 103 Kbps (0.292 bit/pixel)
Аудио 1: AC-3, 48.0 KHz, 2 ch, 192 Kbps, CBR - русский
Аудио 2: AC-3, 48.0 KHz, 2 ch, 192 Kbps, CBR - английский
Общее
Полное имя : K:12 рождественских свиданий.avi
Формат : AVI
Формат/Информация : Audio Video Interleave
Размер файла : 1,45 Гбайт
Продолжительность : 1 ч. 23 м.
Общий поток : 2502 Кбит/сек
Название фильма : 12 рождественских свиданий / 12 Dates of Christmas (2011)
Программа кодирования : VirtualDubMod 1.5.10.2 (build 2540/release)
Библиотека кодирования : VirtualDubMod build 2540/release

Видео
Идентификатор : 0
Формат : MPEG-4 Visual
Профиль формата : Advanced Simple@L5
Параметр BVOP формата : 2
Параметр QPel формата : Нет
Параметр GMC формата : Без точки перехода
Параметр матрицы формата : Default (MPEG)
Идентификатор кодека : XVID
Идентификатор кодека/Подсказка : XviD
Продолжительность : 1 ч. 23 м.
Битрейт : 2103 Кбит/сек
Ширина : 720 пикселей
Высота : 400 пикселей
Соотношение сторон : 16:9
Частота кадров : 25,000 кадров/сек
Цветовое пространство : YUV
Субдискретизация насыщенности : 4:2:0
Битовая глубина : 8 бит
Тип развёртки : Прогрессивная
Метод сжатия : С потерями
Бит/(Пиксели*Кадры) : 0.292
Размер потока : 1,22 Гбайт (84%)
Библиотека кодирования : XviD 1.1.0 (UTC 2005-11-22)

Аудио #1
Идентификатор : 1
Формат : AC-3
Формат/Информация : Audio Coding 3
Расширение режима : CM (complete main)
Параметр Endianness формата : Big
Идентификатор кодека : 2000
Продолжительность : 1 ч. 23 м.
Вид битрейта : Постоянный
Битрейт : 192 Кбит/сек
Каналы : 2 канала
Расположение каналов : Front: L R
Частота : 48,0 КГц
Битовая глубина : 16 бит
Метод сжатия : С потерями
Задержка видео : 24 мс.
Размер потока : 114 Мбайт (8%)
Выравнивание : Разделение по промежуткам
Продолжительность промежутка : 40 мс. (1,00 видеокадр)
Время предзагрузки промежутка : 500 мс.
Заголовок : Профессиональный (полное дублирование) Disney

Аудио #2
Идентификатор : 2
Формат : AC-3
Формат/Информация : Audio Coding 3
Расширение режима : CM (complete main)
Параметр Endianness формата : Big
Идентификатор кодека : 2000
Продолжительность : 1 ч. 23 м.
Вид битрейта : Постоянный
Битрейт : 192 Кбит/сек
Каналы : 2 канала
Расположение каналов : Front: L R
Частота : 48,0 КГц
Битовая глубина : 16 бит
Метод сжатия : С потерями
Задержка видео : 24 мс.
Размер потока : 114 Мбайт (8%)
Выравнивание : Разделение по промежуткам
Продолжительность промежутка : 40 мс. (1,00 видеокадр)
Время предзагрузки промежутка : 500 мс.
Заголовок : Английский








реклама партнёра


Вернуться к началу
 Профиль  
 
   Похожие торренты   Автор   Торрент   Размер 
В этой теме нет новых непрочитанных сообщений. 12 Рождественских желаний / 12 Wishes of Christmas [фэнтези, комедия, 2011] DVD5, Mvo [лицензия]

salma3

48 | 7

3.92 ГБ

В этой теме нет новых непрочитанных сообщений. 12 Рождественских желаний / 12 Wishes of Christmas [фэнтези, комедия, 2011] DVDRip, Mvo [лицензия]

salma3

572 | 47

1.46 ГБ

В этой теме нет новых непрочитанных сообщений. 12 Рождественских желаний / 12 Wishes of Christmas [фэнтези, комедия, 2011] DVDRip-AVC, Mvo [лицензия]

salma3

76 | 7

1.46 ГБ

В этой теме нет новых непрочитанных сообщений. Рождество с Холли / Christmas with Holly [Драма, семейный, 2012] HDTVRip, Mvo [Disney]

salma3

185 | 17

1.45 ГБ

В этой теме нет новых непрочитанных сообщений. 50 первых поцелуев / 50 First Dates [мелодрама, комедия, 2004] HDRip, Dub

salma3

181 | 16

1.45 ГБ

В этой теме нет новых непрочитанных сообщений. Девять жизней Рождества / The Nine Lives of Christmas [мелодрама, 2014] HDTVRip, Avo

salma3

575 | 10

1.37 ГБ

В этой теме нет новых непрочитанных сообщений. Свидания / Dates [S01] (Джон Мэйбери, Филиппа Лангдэйл, Чарльз Стёрридж) [2013, драма, HDTVRip | Victory Films]

Nickolas3435

24 | 6

2.21 ГБ


Начать новую тему Ответить на тему  [ 1 сообщение ] 




Для Мосгорсуда, Роскомнадзора и рекламодателей:: mosgorsud-torrent[собачка]yandex.ru