Торрент файл
скачать торрент магнет ссылка Добавлен: 25 июн 2013, 19:41
Размер: 1.91 ГБ
Сидеров: 4
Личеров: 1
Автор

СообщениеДобавлено: 25 июн 2013, 19:41 

Не в сети
Супермодератор
Аватара пользователя
Дата регистрации:
15 фев 2012, 16:44
Возраст: 27
Спасибо: 5139 / 2089
Сообщения: 17411
Страна: Турция
Жанр: Драма, комедия
Год выпуска: 2011
Продолжительность: 01:58:51

Перевод: Любительский (одноголосный)
Cубтитры: русские
Оригинальная аудиодорожка: Турецкий

Режиссер: Чаган Ырмак / Çağan Irmak

В ролях: Четин Текиндор (Çetin Tekindor), Дурукан Челиккая (Durukan Çelikkaya), Йигит Озшенер (Yiğit Özşener), Гёкче Бахадыр (Gökçe Bahadır), Зафер Алгёз (Zafer Algöz), Саджиде Ташанер (Sacide Taşaner), Хумейра (Hümeyra), Усхан Чакыр (Ushan Çakır), Мерт Фырат (Mert Fırat), Эзги Мола (Ezgi Mola)

Описание: Драма, вдохновленная детством режиссера, о насильственной миграции между Турцией и Грецией в 1923 году, как это видит десятилетний мальчик. История, рассказанная Чаганом Ырмаком, разворачивается в маленьком посёлке на западе Турции, у берегов Эгейского моря. В более широком смысле это рассказ о больших переменах, произошедших внутри одной семьи и в масштабах целого государства, переданная с уст 10-летнего Озана и его дедушки Мехмета Яваша. Это очень трогательная жизненная драма о любви к ближнему, сочувствии, потерянности души, да и просто - о Человеке.



Сэмпл: http://multi-up.com/877755

Качество видео: DVDRip
Формат видео: AVI

Видео: 720x304 (2.37:1), 25 fps, XviD build 50 ~1649 kbps avg, 0.30 bit/pixel
Аудио 1: 48 kHz, MPEG Layer 3, 2 ch, ~192.00 kbps avg(Русский)
Аудио 2: 48 kHz, AC3 Dolby Digital, 3/2 (L,C,R,l,r) + LFE ch, ~448.00 kbps avg(Турецкий)
Формат субтитров: softsub (SRT)
Доп. информация о субтитрах: Русские внешние (SIMURQ)
Общее
Полное имя : D:Мои видеозаписиНарод моего дедаDedemin insanlari.avi
Формат : AVI
Формат/Информация : Audio Video Interleave
Размер файла : 1,91 Гбайт
Продолжительность : 1 ч. 58 м.
Общий поток : 2305 Кбит/сек
Программа кодирования : VirtualDubModRus 1.5.10.2 (build 2542/release)
Библиотека кодирования : VirtualDubMod build 2542/release

Видео
Идентификатор : 0
Формат : MPEG-4 Visual
Профиль формата : Advanced Simple@L5
Параметр BVOP формата : 2
Параметр QPel формата : Нет
Параметр GMC формата : Без точки перехода
Параметр матрицы формата : Выборочная
Идентификатор кодека : XVID
Идентификатор кодека/Подсказка : XviD
Продолжительность : 1 ч. 58 м.
Битрейт : 1650 Кбит/сек
Ширина : 720 пикселей
Высота : 304 пикселя
Соотношение сторон : 2,35:1
Частота кадров : 25,000 кадров/сек
Цветовое пространство : YUV
Субдискретизация насыщенности : 4:2:0
Битовая глубина : 8 бит
Тип развёртки : Прогрессивная
Метод сжатия : С потерями
Бит/(Пиксели*Кадры) : 0.302
Размер потока : 1,37 Гбайт (72%)
Библиотека кодирования : XviD 1.2.1 (UTC 2008-12-04)

Аудио #1
Идентификатор : 1
Формат : MPEG Audio
Версия формата : Version 1
Профиль формата : Layer 3
Режим : Joint stereo
Расширение режима : MS Stereo
Идентификатор кодека : 55
Идентификатор кодека/Подсказка : MP3
Продолжительность : 1 ч. 58 м.
Вид битрейта : Постоянный
Битрейт : 192 Кбит/сек
Каналы : 2 канала
Частота : 48,0 КГц
Метод сжатия : С потерями
Размер потока : 163 Мбайт (8%)
Выравнивание : Соединение по промежуткам
Продолжительность промежутка : 40 мс. (1,00 видеокадр)
Время предзагрузки промежутка : 504 мс.

Аудио #2
Идентификатор : 2
Формат : AC-3
Формат/Информация : Audio Coding 3
Расширение режима : CM (complete main)
Идентификатор кодека : 2000
Продолжительность : 1 ч. 58 м.
Вид битрейта : Постоянный
Битрейт : 448 Кбит/сек
Каналы : 6 каналов
Расположение каналов : Front: L C R, Side: L R, LFE
Частота : 48,0 КГц
Битовая глубина : 16 бит
Метод сжатия : С потерями
Размер потока : 381 Мбайт (19%)
Выравнивание : Разделение по промежуткам
Продолжительность промежутка : 40 мс. (1,00 видеокадр)
Время предзагрузки промежутка : 500 мс.






реклама партнёра


Вернуться к началу
 Профиль Отправить личное сообщение  
 
   Похожие торренты   Автор   Торрент   Размер 
В этой теме нет новых непрочитанных сообщений. Народ против Ларри Флинта / The People vs. Larry Flynt [драма, биография, 1996] HDRip, 2Mvo+Dvo

salma3

8 | 2

1.64 ГБ

В этой теме нет новых непрочитанных сообщений. Объект моего восхищения / The Object of My Affection [Мелодрама, комедия, драма, 1998] DVDRip, Mvo

salma3

37 | 9

1.34 ГБ

В этой теме нет новых непрочитанных сообщений. Ночной народ / Nightbreed [ужасы, фэнтези, 1990] DVDRip, Dvo+Avo

salma3

56 | 11

1.59 ГБ

В этой теме нет новых непрочитанных сообщений. Желание моего отца / My Father's Will [Драма, 2009] DVDRip, Mvo

salma3

83 | 1

1.45 ГБ

В этой теме нет новых непрочитанных сообщений. Ночной народ / Nightbreed [фэнтези, ужасы, драма, 1990] BDRip, Avo

salma3

31 | 7

2.18 ГБ

В этой теме нет новых непрочитанных сообщений. Труп моего врага / Le corps de mon ennemi [драма, криминал, 1976] DVDRip, Mvo

salma3

110 | 2

1.46 ГБ

В этой теме нет новых непрочитанных сообщений. Grandfather - In Human Form [2013, Heavy Metal,Progressive Metal, MP3]

PriZraK

0 | 1

115.32 МБ


Начать новую тему Ответить на тему  [ 1 сообщение ] 




Для Мосгорсуда, Роскомнадзора и рекламодателей:: mosgorsud-torrent[собачка]yandex.ru