Торрент файл
скачать торрент магнет ссылка Добавлен: 25 июн 2013, 12:02
Размер: 705.7 МБ
Сидеров: 2
Личеров: 2
Автор

СообщениеДобавлено: 25 июн 2013, 12:02 

Не в сети
Супермодератор
Аватара пользователя
Дата регистрации:
15 фев 2012, 16:44
Возраст: 27
Спасибо: 5143 / 2090
Сообщения: 17514

Мудрые детки / Wise Kids

Год выхода: 2011
Жанр: Драма, мелодрама
Режиссер: Стивен Коун / Stephen Cone

В ролях: Молли Кунц, Тайлер Росс, Элисон Торем, Мэтт ДэКаро, Садье Рифай, Стивен Коун, Клифф Чемберлен, Сэди Роджерс, Энн Уитни, Родни Ли Роджерс


О фильме:
Три главных героя учащиеся баптисткой школы - Бри, дочь пастора, пребывающая в изнурительных сомнениях, гиперактивная Лора, лучшая подруга Бри и мальчик Тим, верующий, с открытой душой, сына отца-одиночки. История рассказанная в этом фильме происходит в городке Чарльстоун, в момент между колледжем и средней школой, когда кажется, что жизнь состоит только из одних вопросов, на которые нет ответов, а широко открытое будущее пугает...




Страна: США, Канада, Бельгия
Продолжительность: 01:40:22
Перевод: Любительский одноголосый (Перевод: Саша Париж, Озвучка: В. Кошкин)
Файл
Качество: DVDRip
Формат файла: AVI
Видео кодек: XviD
Аудио кодек: MP3
Видео: XviD; 640х352; 25 fps; ~897 kbps
Аудио MPEG Audio Layer 3; 48,0 kHz; Stereo; 128 kbps


СЕМПЛ
Общее
Полное имя : The Wise Kids (2011).avi
Формат : AVI
Формат/Информация : Audio Video Interleave
Размер файла : 706 Мбайт
Продолжительность : 1 ч. 35 м.
Общий поток : 1034 Кбит/сек

Видео
Идентификатор : 0
Формат : MPEG-4 Visual
Профиль формата : Advanced Simple@L5
Параметр BVOP формата : 2
Параметр QPel формата : Нет
Параметр GMC формата : Без точки перехода
Параметр матрицы формата : Default (H.263)
Идентификатор кодека : XVID
Идентификатор кодека/Подсказка : XviD
Продолжительность : 1 ч. 35 м.
Битрейт : 897 Кбит/сек
Ширина : 640 пикселей
Высота : 352 пикселя
Соотношение сторон : 16:9
Частота кадров : 25,000 кадров/сек
Цветовое пространство : YUV
Субдискретизация насыщенности : 4:2:0
Битовая глубина : 8 бит
Тип развёртки : Прогрессивная
Метод сжатия : С потерями
Бит/(Пиксели*Кадры) : 0.159
Размер потока : 612 Мбайт (87%)
Библиотека кодирования : XviD 64

Аудио
Идентификатор : 1
Формат : MPEG Audio
Версия формата : Version 1
Профиль формата : Layer 3
Идентификатор кодека : 55
Идентификатор кодека/Подсказка : MP3
Продолжительность : 1 ч. 35 м.
Вид битрейта : Постоянный
Битрейт : 128 Кбит/сек
Каналы : 2 канала
Частота : 48,0 КГц
Метод сжатия : С потерями
Размер потока : 87,3 Мбайт (12%)
Выравнивание : Разделение по промежуткам
Продолжительность промежутка : 40 мс. (1,00 видеокадр)
Время предзагрузки промежутка : 500 мс.
Библиотека кодирования : LAMELAME_MAJOR_VERSI








реклама партнёра


Вернуться к началу
 Профиль Отправить личное сообщение  
 
   Похожие торренты   Автор   Торрент   Размер 
В этой теме нет новых непрочитанных сообщений. Мерзавцы / Кровавые дети / Bloody Kids [Драма, 1979] DVDRip, Avo

salma3

42 | 9

1.37 ГБ

В этой теме нет новых непрочитанных сообщений. Кислотные детки / Sodium Babies [Ужасы, фэнтези, драма, 2009] HDRip, Dvo

salma3

8 | 7

1.37 ГБ

В этой теме нет новых непрочитанных сообщений. Heavy Metal Kids - Heavy Metal Kids [2009, Glam, Hard Rock, MP3]

PriZraK

0 | 1

105.91 МБ

В этой теме нет новых непрочитанных сообщений. Cold War Kids - Mine Is Yours [2011, Rock, Alternative, MP3]

PriZraK

0 | 1

101.84 МБ

В этой теме нет новых непрочитанных сообщений. Короли мототрека / Motocross Kids [комедия, семейный, 2004] DVDRip, Mvo

salma3

13 | 1

1.12 ГБ

В этой теме нет новых непрочитанных сообщений. Дети свинга / Swing Kids [драма, музыка, 1993] WEB-DL 720p, Dvo+Sub

salma3

79 | 8

3.7 ГБ

В этой теме нет новых непрочитанных сообщений. Малыши из мусорного бачка / The Garbage Pail Kids Movie [фантастика, комедия, приключения, семейный, 1987] DVDRip, Avo

salma3

42 | 10

2 ГБ


Начать новую тему Ответить на тему  [ 1 сообщение ] 




Для Мосгорсуда, Роскомнадзора и рекламодателей:: mosgorsud-torrent[собачка]yandex.ru