Торрент файл
скачать торрент магнет ссылка Добавлен: 24 июн 2013, 12:46
Размер: 1.38 ГБ
Сидеров: 9
Личеров: 4
Статус: (salma3)
Автор

СообщениеДобавлено: 24 июн 2013, 12:46 

Не в сети
Супермодератор
Аватара пользователя
Дата регистрации:
15 фев 2012, 16:44
Возраст: 27
Спасибо: 5139 / 2090
Сообщения: 17432

Прощения нет / Beyond Forgiveness

Год выхода: 1995
Жанр: Боевик
Режиссер: Боб Мисиоровски
В ролях: Томас Йен Гриффит, Рутгер Хауэр, Артур Жмиевски, Бозена Шиманска, Ежи Карашкевич, Цезари Покс, Яцек Покс, Александр Высоцки, Рышард Рончевский, Джерри Флинн, Леон Немчик

О фильме:
На глазах у чикагского полицейского Фрэнка Вачинского убивают младшего брата. В завязавшейся с бандитами перестрелке Фрэнк убивает двоих из них, но тому, кто застрелил брата, удается скрыться. Так как официальное следствие не приносит результатов, Фрэнк начинает свою охоту за убийцей и выходит на главаря русской мафии, а затем на доктора Лема, занимающегося преступным бизнесом. Профессионализм полицейского не позволяет Фрэнку ограничиться местью за брата, и он вступает в схватку с организацией.




Страна: США, Польша
Продолжительность: 01:29:03
Перевод: Авторский одноголосый (Карцев, Дохалов)

Файл
Качество: DVDRip
Формат файла: AVI
Видео кодек: XviD
Аудио кодек: AC3
Видео: 720x544 (1.32:1), 23.976 fps, XviD ~1614 kbps avg, 0.17 bit/pixel
Аудио: #1: 48 kHz, AC3 Dolby Digital, 2.0 ~192.00 kbps avg (RUS)
Аудио: #2: 48 kHz, AC3 Dolby Digital, 2.0 ~192.00 kbps avg (RUS)
Аудио: #3: 48 kHz, AC3 Dolby Digital, 2.0 ~192.00 kbps avg (ENG)


Общее
Полное имя : D:1АААПрощения нет.avi
Формат : AVI
Формат/Информация : Audio Video Interleave
Размер файла : 1,38 Гбайт
Продолжительность : 1 ч. 29 м.
Общий поток : 2211 Кбит/сек
Программа кодирования : VirtualDubMod 1.5.10.2 (build 2540/release)
Библиотека кодирования : VirtualDubMod build 2540/release

Видео
Идентификатор : 0
Формат : MPEG-4 Visual
Профиль формата : Advanced Simple@L5
Параметр BVOP формата : 2
Параметр QPel формата : Нет
Параметр GMC формата : Без точки перехода
Параметр матрицы формата : Default (MPEG)
Режим смешивания : Сжатый битовый поток
Идентификатор кодека : XVID
Идентификатор кодека/Подсказка : XviD
Продолжительность : 1 ч. 29 м.
Битрейт : 1616 Кбит/сек
Ширина : 720 пикселей
Высота : 544 пикселя
Соотношение сторон : 4:3
Частота кадров : 23,976 кадра/сек
Цветовое пространство : YUV
Субдискретизация насыщенности : 4:2:0
Битовая глубина : 8 бит
Тип развёртки : Прогрессивная
Метод сжатия : С потерями
Бит/(Пиксели*Кадры) : 0.172
Размер потока : 1,00 Гбайт (73%)
Библиотека кодирования : XviD 1.2.1 (UTC 2008-12-04)

Аудио #1
Идентификатор : 1
Формат : AC-3
Формат/Информация : Audio Coding 3
Расширение режима : CM (complete main)
Параметр Endianness формата : Big
Идентификатор кодека : 2000
Продолжительность : 1 ч. 29 м.
Вид битрейта : Постоянный
Битрейт : 192 Кбит/сек
Каналы : 2 канала
Расположение каналов : Front: L R
Частота : 48,0 КГц
Битовая глубина : 16 бит
Метод сжатия : С потерями
Размер потока : 122 Мбайт (9%)
Выравнивание : Разделение по промежуткам
Продолжительность промежутка : 42 мс. (1,00 видеокадр)
Время предзагрузки промежутка : 500 мс.

Аудио #2
Идентификатор : 2
Формат : AC-3
Формат/Информация : Audio Coding 3
Расширение режима : CM (complete main)
Параметр Endianness формата : Big
Идентификатор кодека : 2000
Продолжительность : 1 ч. 29 м.
Вид битрейта : Постоянный
Битрейт : 192 Кбит/сек
Каналы : 2 канала
Расположение каналов : Front: L R
Частота : 48,0 КГц
Битовая глубина : 16 бит
Метод сжатия : С потерями
Размер потока : 122 Мбайт (9%)
Выравнивание : Разделение по промежуткам
Продолжительность промежутка : 42 мс. (1,00 видеокадр)
Время предзагрузки промежутка : 500 мс.

Аудио #3
Идентификатор : 3
Формат : AC-3
Формат/Информация : Audio Coding 3
Расширение режима : CM (complete main)
Параметр Endianness формата : Big
Идентификатор кодека : 2000
Продолжительность : 1 ч. 29 м.
Вид битрейта : Постоянный
Битрейт : 192 Кбит/сек
Каналы : 2 канала
Расположение каналов : Front: L R
Частота : 48,0 КГц
Битовая глубина : 16 бит
Метод сжатия : С потерями
Размер потока : 122 Мбайт (9%)
Выравнивание : Разделение по промежуткам
Продолжительность промежутка : 42 мс. (1,00 видеокадр)
Время предзагрузки промежутка : 500 мс.



Релиз группа:Автор рипа:




реклама партнёра


Вернуться к началу
 Профиль Отправить личное сообщение  
 
   Похожие торренты   Автор   Торрент   Размер 
В этой теме нет новых непрочитанных сообщений. Прощения нет / Beyond Forgiveness [Боевик, триллер, 1995] DVDRip, 2Avo

salma3

5 | 2

1.46 ГБ

В этой теме нет новых непрочитанных сообщений. Прощения нет / Blood of the Innocent [Боевик, 1995] DVDRip, Avo

salma3

16 | 2

742.92 МБ

В этой теме нет новых непрочитанных сообщений. Death Becomes Her - Last Chance For Forgiveness [2011, Deathcore, MP3]

PriZraK

0 | 1

81.77 МБ

В этой теме нет новых непрочитанных сообщений. Сто лет прощения / Cien años de perdón [триллер, криминал, 2016] HDRip, Avo

salma3

1269 | 148

1.46 ГБ

В этой теме нет новых непрочитанных сообщений. Дон / Босс / The Don [боевик, мелодрама, 1995] DVDRip, Avo

salma3

1 | 4

1.46 ГБ

В этой теме нет новых непрочитанных сообщений. Стрелок / The Shooter [Боевик, 1995] DVDRip, Mvo

salma3

106 | 9

1.45 ГБ

В этой теме нет новых непрочитанных сообщений. Смертельный поединок / Superfights [Боевик, 1995] DVDRip, Mvo+Avo

salma3

46 | 3

1.46 ГБ


Начать новую тему Ответить на тему  [ 1 сообщение ] 




Для Мосгорсуда, Роскомнадзора и рекламодателей:: mosgorsud-torrent[собачка]yandex.ru