Торрент файл
скачать торрент магнет ссылка Добавлен: 17 июн 2013, 20:54
Размер: 1.37 ГБ
Сидеров: 9
Личеров: 4
Статус: (salma3)
Автор

СообщениеДобавлено: 17 июн 2013, 20:54 

В сети
Супермодератор
Аватара пользователя
Дата регистрации:
15 фев 2012, 16:44
Возраст: 27
Спасибо: 5142 / 2090
Сообщения: 17471

Наедине со смертью / Camara oscura

Год выхода: 2003
Жанр: триллер
Режиссер: По Фрейксас
В ролях: Силке, Унакс Угальде, Адрия Колладо, Андрес Гертрудикс, Диана Лазаро, Льюис Омар, Хуан Фернандес, Луис Солер, Хосе Мария Доменек, Эктор Кларамунт, Мустафа Джавара, Хавьер Серрат, Майкл МакКоннохи

О фильме:
Из-за глупой оплошности пятеро молодых туристов и их юный спутник оказываются без лодки в воде вдали от африканского побережья. Проведя мучительную ночь в бескрайнем океане, потерпевшие бедствие замечают старый грузовой корабль. Но, подплыв к нему, они становятся свидетелями зверского убийства. Однако мрачное судно - их единственное спасение, и измученные люди тайком поднимаются на борт, чтобы укрыться в трюме. Чьими невольными пленниками они стали? Объятые усталостью и страхом, смельчаки отправляются на разведку. Они не подозревают, что в стальных лабиринтах палуб их ждут только ужас и смерть, не щадящая чужаков на своем корабле.



Страна: Испания, Мексика
Студия: Iris Star, Estudios Picasso, Instituto Ruso Mexicano
Продолжительность: 01:40:32
Перевод: Профессиональный (двухголосый закадровый)

Файл
Кодек: XviD
Качество: DVDRip
Видео: XviD, 1493 Кбит/с, 720x320, 25 кадр/с
Звук: AC3, 6 ch, 448 Кбит/с

Семпл





Общее
Полное имя : Naedine.so.smertju.2003.DVDRip.MADs.Team.avi
Формат : AVI
Формат/Информация : Audio Video Interleave
Размер файла : 1,37 Гбайт
Продолжительность : 1 ч. 40 м.
Общий поток : 1948 Кбит/сек
Программа кодирования : VirtualDubMod 1.5.4.1 (build 2178/release)
Библиотека кодирования : VirtualDubMod build 2178/release

Видео
Идентификатор : 0
Формат : MPEG-4 Visual
Профиль формата : Advanced Simple@L5
Параметр BVOP формата : 1
Параметр QPel формата : Нет
Параметр GMC формата : Без точки перехода
Параметр матрицы формата : Выборочная
Идентификатор кодека : XVID
Идентификатор кодека/Подсказка : XviD
Продолжительность : 1 ч. 40 м.
Битрейт : 1493 Кбит/сек
Ширина : 720 пикселей
Высота : 320 пикселей
Соотношение сторон : 2,25:1
Частота кадров : 25,000 кадров/сек
Цветовое пространство : YUV
Субдискретизация насыщенности : 4:2:0
Битовая глубина : 8 бит
Тип развёртки : Прогрессивная
Метод сжатия : С потерями
Бит/(Пиксели*Кадры) : 0.259
Размер потока : 1,05 Гбайт (77%)
Библиотека кодирования : XviD 1.2.0.dev47 (UTC 2006-11-01)

Аудио
Идентификатор : 1
Формат : AC-3
Формат/Информация : Audio Coding 3
Расширение режима : CM (complete main)
Параметр Endianness формата : Big
Идентификатор кодека : 2000
Продолжительность : 1 ч. 40 м.
Вид битрейта : Постоянный
Битрейт : 448 Кбит/сек
Каналы : 6 каналов
Расположение каналов : Front: L C R, Side: L R, LFE
Частота : 48,0 КГц
Битовая глубина : 16 бит
Метод сжатия : С потерями
Размер потока : 322 Мбайт (23%)
Выравнивание : Разделение по промежуткам
Продолжительность промежутка : 96 мс. (2,40 видеокадра)
Время предзагрузки промежутка : 96 мс.




реклама партнёра


Вернуться к началу
 Профиль Отправить личное сообщение  
 
   Похожие торренты   Автор   Торрент   Размер 
В этой теме нет новых непрочитанных сообщений. Опасное обольщение / Oscura Seduccion [триллер, 2010] BDRip 1080p, Mvo

salma3

55 | 38

8.11 ГБ

В этой теме нет новых непрочитанных сообщений. Сыграй мне перед смертью / Play Misty for Me [триллер, драма, криминал, 1971] BDRip, Dub

salma3

9 | 1

1.45 ГБ

В этой теме нет новых непрочитанных сообщений. Сыграй мне перед смертью / Play Misty for me [Триллер, драма, мелодрама, криминал, 1971] BDRemux 1080p, Dub+Sub

salma3

1 | 2

25.3 ГБ

В этой теме нет новых непрочитанных сообщений. Сыграй мне перед смертью / Play Misty for me [Триллер, драма, мелодрама, криминал, 1971] BDRip 720p, Dub+2Mvo+Sub

salma3

3 | 4

7.6 ГБ

В этой теме нет новых непрочитанных сообщений. Погибшие жестокой смертью 2 / Tai Hong Tai Hien 2 / Still 2 [ужасы, 2014] DVDRip, Dvo

salma3

284 | 14

1.13 ГБ

В этой теме нет новых непрочитанных сообщений. Торговец смертью / Merchant of Death [Боевик, драма, 1997] DVDRip, Dvo

salma3

20 | 2

1.46 ГБ

В этой теме нет новых непрочитанных сообщений. Рандеву со смертью / Rendezvous with Death [Боевые искусства, 1980] DVDRip, Avo

salma3

29 | 6

743.35 МБ


Начать новую тему Ответить на тему  [ 1 сообщение ] 




Для Мосгорсуда, Роскомнадзора и рекламодателей:: mosgorsud-torrent[собачка]yandex.ru