Торрент файл
скачать торрент магнет ссылка Добавлен: 15 июн 2013, 09:16
Размер: 1.37 ГБ
Сидеров: 50
Личеров: 3
Статус: (salma3)
Автор

СообщениеДобавлено: 15 июн 2013, 09:16 

Не в сети
Зам. Админа
Аватара пользователя
Дата регистрации:
02 дек 2010, 12:39
Спасибо: 12458 / 214
Сообщения: 27968


Год выхода: 2012
Жанр: комедия, семейный
Режиссер: Барбара Бредеро
В ролях: Виллем Воогд, Феликс Осинга, Брент Томассен, Занне Валлис де Врис, Ханна Хукстра, Раймонд де Койпер, Вивьен ван ден Ассем, Кас Янсен, Мара ван Влаймен, Уитни Франкер и др.

Описание:
Едва окончив педуниверситет наш герой был направлен на прохождение стажировки учителем в одной школе. Там его жду настоящие злоключения, ведь попадутся ему самые непослушные ученики...


Выпущено: Нидерланды / PVPictures
Продолжительность: 01:20:54
Озвучивание: Любительское (одноголосное) [Вячеслав Прошин]

Формат: AVI (XviD)
Качество: HDRip
Видео: 1961 kb/s, 720x384
Аудио: AC3, 448 Kb/s (6 ch)

Формат : AVI
Формат/Информация : Audio Video Interleave
Размер файла : 1,37 Гбайт
Продолжительность : 1 ч. 20 м.
Общий поток : 2419 Кбит/сек
Программа кодирования : VirtualDubMod 1.5.10.3 | http://www.virtualdub-fr.org || (build 2550/release)
Библиотека кодирования : VirtualDubMod build 2550/release

Видео
Идентификатор : 0
Формат : MPEG-4 Visual
Профиль формата : Advanced Simple@L5
Параметр BVOP формата : 2
Параметр QPel формата : Нет
Параметр GMC формата : Без точки перехода
Параметр матрицы формата : Default (MPEG)
Идентификатор кодека : XVID
Идентификатор кодека/Подсказка : XviD
Продолжительность : 1 ч. 20 м.
Битрейт : 1962 Кбит/сек
Ширина : 720 пикселей
Высота : 384 пикселя
Соотношение сторон : 1,85:1
Частота кадров : 24,000 кадра/сек
Цветовое пространство : YUV
Субдискретизация насыщенности : 4:2:0
Битовая глубина : 8 бит
Тип развёртки : Прогрессивная
Метод сжатия : С потерями
Бит/(Пиксели*Кадры) : 0.296
Размер потока : 1,11 Гбайт (81%)
Библиотека кодирования : XviD 1.2.1 (UTC 2008-12-04)

Аудио
Идентификатор : 1
Формат : AC-3
Формат/Информация : Audio Coding 3
Расширение режима : CM (complete main)
Параметр Endianness формата : Big
Идентификатор кодека : 2000
Продолжительность : 1 ч. 20 м.
Вид битрейта : Постоянный
Битрейт : 448 Кбит/сек
Каналы : 6 каналов
Расположение каналов : Front: L C R, Side: L R, LFE
Частота : 48,0 КГц
Битовая глубина : 16 бит
Метод сжатия : С потерями
Размер потока : 259 Мбайт (19%)
Выравнивание : Разделение по промежуткам
Продолжительность промежутка : 42 мс. (1,00 видеокадр)
Время предзагрузки промежутка : 500 мс.







реклама партнёра


Вернуться к началу
 Профиль  
 
   Похожие торренты   Автор   Торрент   Размер 
В этой теме нет новых непрочитанных сообщений. Здрасьте, приехали! [Комедия, семейный, 2012] HDRip

Dracon

118 | 6

1.46 ГБ

В этой теме нет новых непрочитанных сообщений. Золотая зима / Golden Winter [комедия, семейный, 2012] HDRip, Dvo

salma3

30 | 2

1.45 ГБ

В этой теме нет новых непрочитанных сообщений. Семейка вампиров / Die Vampirschwestern [фэнтези, драма, комедия, приключения, семейный, 2012] HDRip, Dub [Лицензия]

Dracon

211 | 8

1.46 ГБ

В этой теме нет новых непрочитанных сообщений. Всё включено: Каникулы в Греции / Sune i Grekland - All Inclusive [комедия, семейный, 2012] HDRip, Mvo [Лицензия]

Dracon

1703 | 92

1.46 ГБ

В этой теме нет новых непрочитанных сообщений. Альфа и Омега 5: Семейный отдых [Мультфильм, комедия, приключения, семейный, полнометражный, 2015] HDRip, Dub

Dracon

297 | 16

663.21 МБ

В этой теме нет новых непрочитанных сообщений. Классный трах [2016 г., Amateur, All Sex, Oral, CamRip]

Dievas

0 | 0

86.19 МБ

В этой теме нет новых непрочитанных сообщений. Классный секс [2016 г., Amateur, All Sex, Oral, CamRip]

Dievas

9 | 1

217.5 МБ


Начать новую тему Ответить на тему  [ 1 сообщение ] 




Для Мосгорсуда, Роскомнадзора и рекламодателей:: mosgorsud-torrent[собачка]yandex.ru