Торрент файл
скачать торрент магнет ссылка Добавлен: 14 июн 2013, 15:32
Размер: 1.37 ГБ
Сидеров: 70
Личеров: 9
Статус: (salma3)
Автор

СообщениеДобавлено: 14 июн 2013, 15:32 

Не в сети
Супермодератор
Аватара пользователя
Дата регистрации:
15 фев 2012, 16:44
Возраст: 28
Спасибо: 7165 / 2147
Сообщения: 62265

Страна: США
Производство: Conquistador Entertainment, Kushner-Locke Company, The, Mahagonny Pictures
Жанр: Фантастика, ужасы, боевик
Год выпуска: 1998

Продолжительность: 01:37:15
Перевод: Авторский одноголосый (Дольский)

Оригинальная аудиодорожка: Английская

Cубтитры: Нет
Режиссер: Джон Хесс
В ролях: Паркер Стивенсон, Терри Фаррелл, Кори Фелдман, Рик Спрингфилд, Трой Донахью, Оди Инглэнд, Тревор Годдард, Ричмонд Аркетт, Элстон Риджл, Гретхен Палмер


Описание: Бесстрашный «взвод самоубийц», сформированный из заключенных, высаживается на далекой планете для захвата вражеской военной базы. Однако вскоре бойцы обнаруживают, что их опередил более сильный противник — невидимый хищник, оставивший после себя горы трупов. Напряжение возрастает, когда они начинают догадываться, что ужасный убийца скрывается под обличием одного из них. Теперь, в обстановке ненависти и подозрений, паранойи и страха они должны сплотиться, чтобы вместе противостоять неведомому врагу, который коварно и беспощадно устраняет одного члена группы за другим.



Исходник: DVD9 R5
Тип релиза: DVDRip
Контейнер: AVI
Видео: 720x544 (1.32:1), 23.976 fps, XviD ~1589 kbps avg, 0.17 bit/pixel
Аудио: #1: 48 kHz, AC3, 2.0 ~192 kbps avg (RUS)
Аудио: #2: 48 kHz, AC3, 2.0 ~224 kbps avg (ENG)
Общее
Полное имя : D:1АААЛегион.avi
Формат : AVI
Формат/Информация : Audio Video Interleave
Размер файла : 1,37 Гбайт
Продолжительность : 1 ч. 37 м.
Общий поток : 2020 Кбит/сек
Программа кодирования : VirtualDubMod 1.5.10.2 (build 2540/release)
Библиотека кодирования : VirtualDubMod build 2540/release

Видео
Идентификатор : 0
Формат : MPEG-4 Visual
Профиль формата : Advanced Simple@L5
Параметр BVOP формата : 2
Параметр QPel формата : Нет
Параметр GMC формата : Без точки перехода
Параметр матрицы формата : Default (MPEG)
Режим смешивания : Сжатый битовый поток
Идентификатор кодека : XVID
Идентификатор кодека/Подсказка : XviD
Продолжительность : 1 ч. 37 м.
Битрейт : 1590 Кбит/сек
Ширина : 720 пикселей
Высота : 544 пикселя
Соотношение сторон : 4:3
Частота кадров : 23,976 кадра/сек
Цветовое пространство : YUV
Субдискретизация насыщенности : 4:2:0
Битовая глубина : 8 бит
Тип развёртки : Прогрессивная
Метод сжатия : С потерями
Бит/(Пиксели*Кадры) : 0.169
Размер потока : 1,08 Гбайт (79%)
Библиотека кодирования : XviD 1.2.1 (UTC 2008-12-04)

Аудио #1
Идентификатор : 1
Формат : AC-3
Формат/Информация : Audio Coding 3
Расширение режима : CM (complete main)
Параметр Endianness формата : Big
Идентификатор кодека : 2000
Продолжительность : 1 ч. 37 м.
Вид битрейта : Постоянный
Битрейт : 192 Кбит/сек
Каналы : 2 канала
Расположение каналов : Front: L R
Частота : 48,0 КГц
Битовая глубина : 16 бит
Метод сжатия : С потерями
Размер потока : 134 Мбайт (10%)
Выравнивание : Разделение по промежуткам
Продолжительность промежутка : 42 мс. (1,00 видеокадр)
Время предзагрузки промежутка : 500 мс.

Аудио #2
Идентификатор : 2
Формат : AC-3
Формат/Информация : Audio Coding 3
Расширение режима : CM (complete main)
Параметр Endianness формата : Big
Идентификатор кодека : 2000
Продолжительность : 1 ч. 37 м.
Вид битрейта : Постоянный
Битрейт : 224 Кбит/сек
Каналы : 6 каналов
Расположение каналов : Front: L C R, Side: L R, LFE
Частота : 48,0 КГц
Битовая глубина : 16 бит
Метод сжатия : С потерями
Размер потока : 156 Мбайт (11%)
Выравнивание : Разделение по промежуткам
Продолжительность промежутка : 42 мс. (1,00 видеокадр)
Время предзагрузки промежутка : 500 мс.



Релиз от: Автор рипа:



Вернуться к началу
 Профиль Отправить личное сообщение  
 
   Похожие торренты   Автор   Торрент   Размер 
В этой теме нет новых непрочитанных сообщений. Легион / Legion [ужасы, фэнтези, боевик, 2010] Blu-ray 1080p, Dub

salma3

11 | 4

34.81 ГБ

В этой теме нет новых непрочитанных сообщений. Легион / Legion [Ужасы, боевик, триллер, 2010] BDRemux 1080p, Dub

salma3

22 | 19

25.04 ГБ

В этой теме нет новых непрочитанных сообщений. Легион / Legion [Ужасы, боевик, триллер, 2010] WEB-DLRip-AVC, Dub [Open Matte]

salma3

0 | 0

1.7 ГБ

В этой теме нет новых непрочитанных сообщений. Легион / Legion / 1 сезон 1-08 серия из 8 [фантастика, боевик, драма, 2017] WEB-DL 1080p, Mvo [FOX]

salma3

97 | 223

16.23 ГБ

В этой теме нет новых непрочитанных сообщений. Легион / Legion [02x01-02 из 10] [Фантастика, боевик, драма, 2018] WEB-DLRip, Mvo [LostFilm]

salma3

0 | 0

1.29 ГБ

В этой теме нет новых непрочитанных сообщений. Легион / Legion / 1 сезон 1-08 серия из 8 [фантастика, боевик, драма, 2017] WEB-DLRip, Mvo [FOX]

salma3

251 | 271

4.47 ГБ

В этой теме нет новых непрочитанных сообщений. Легион / Legion [02x01 из 08] [Фантастика, боевик, драма, 2018] WEBRip, Mvo [IdeaFilm]

salma3

0 | 0

811.87 МБ


Начать новую тему Ответить на тему  [ 1 сообщение ] 




Для Мосгорсуда, Роскомнадзора и рекламодателей:: mosgorsud-torrent[собачка]yandex.ru
cron