Торрент файл
скачать торрент магнет ссылка Добавлен: 14 июн 2013, 11:58
Размер: 2.03 ГБ
Сидеров: 0
Личеров: 2
Автор

СообщениеДобавлено: 14 июн 2013, 11:58 

Не в сети
Зам. Админа
Аватара пользователя
Дата регистрации:
02 дек 2010, 12:39
Спасибо: 12461 / 214
Сообщения: 27968

Год выпуска: 2013
Жанр:Боевик, триллер, криминал
Выпущено: США, Alexander/ Mitchell Productions, Anvil Films, Current Entertainment, Incentive Filmed Entertainment, Sidney Kimmel Entertainment, Sierra Pictures (III)
Режиссер: Тейлор Хэкфорд
В ролях: Джейсон Стэйтем, Дженнифер Лопес, Майкл Чиклис, Уенделл Пирс, Клифтон Коллинз мл., Бобби Каннавейл, Пэтти ЛюПон, Карлос Карраско, Мика А. Хауптман, Эмма Бут, Ник Нолти, Дэниэл Бернхард, Билли Слотер, Джон Айс, Карл Дж. Уолкер, Сала Бэйкер, Рио Хекфорд, Кирк Балц, Эрл Мэддокс, Джеймс Каррауэй, Шэрон Ландри, Кристин Брайант, Ребекка Маркс, Алишиа Ош, Мадлен Маркс, Кип Гилмен, Треверс Мэкель, Рэнди Россо, Имон Шиэн, Чак Пицерни мл., Фелипе Саваж, Марк Драт, Питер Хэйг, Морин Соломон, Дерек Сесил

О фильме: Главный герой — профессиональный вор, руководствующийся собственным моральным кодексом, но способный запросто отправить на тот свет любого, кто перейдет ему дорогу.

Качество: HDRip-AVC
Видео: MPEG4 Video (H264) 1280x536 (643:268) 23.976fps
Аудио: Dolby AC3 48000Hz 6ch 384kbps
Продолжительность: 01:58:40
Перевод: Дублированный [Лицензия]




General
Unique ID : 43999971769047683239559461179072586755 (0x211A1618F36CC9907FAA0568DE7A2403)
Format : Matroska
Format version : Version 2
File size : 2.03 GiB
Duration : 1h 58mn
Overall bit rate : 2 450 Kbps

Video
ID : 1
Format : AVC
Format/Info : Advanced Video Codec
Format profile : High@L4.1
Format settings, CABAC : Yes
Format settings, ReFrames : 3 frames
Codec ID : V_MPEG4/ISO/AVC
Duration : 1h 58mn
Bit rate : 2 089 Kbps
Width : 1 280 pixels
Height : 536 pixels
Display aspect ratio : 2.40:1
Original display aspect ratio : 2.40:1
Frame rate mode : Variable
Frame rate : 23.976 fps
Color space : YUV
Chroma subsampling : 4:2:0
Bit depth : 8 bits
Scan type : Progressive
Bits/(Pixel*Frame) : 0.127
Stream size : 1.67 GiB (82%)
Title : Parker (2013) - Release for HDCLUB
Writing library : x264 core 116 r2019M 9cc407d
Encoding settings : cabac=1 / ref=3 / deblock=1:-1:-1 / analyse=0x3:0x133 / me=hex / subme=7 / psy=1 / psy_rd=1.00:0.15 / mixed_ref=1 / me_range=16 / chroma_me=1 / trellis=1 / 8x8dct=1 / cqm=0 / deadzone=21,11 / fast_pskip=1 / chroma_qp_offset=-3 / threads=8 / sliced_threads=0 / nr=0 / decimate=1 / interlaced=0 / bluray_compat=0 / constrained_intra=0 / bframes=3 / b_pyramid=1 / b_adapt=2 / b_bias=0 / direct=3 / weightb=1 / open_gop=0 / weightp=2 / keyint=230 / keyint_min=23 / scenecut=40 / intra_refresh=0 / rc_lookahead=40 / rc=abr / mbtree=1 / bitrate=2089 / ratetol=1.0 / qcomp=0.60 / qpmin=10 / qpmax=51 / qpstep=4 / ip_ratio=1.40 / aq=1:1.00
Language : English
Default : Yes
Forced : No

Audio
ID : 2
Format : AC-3
Format/Info : Audio Coding 3
Mode extension : CM (complete main)
Codec ID : A_AC3
Duration : 1h 58mn
Bit rate mode : Constant
Bit rate : 384 Kbps
Channel(s) : 6 channels
Channel positions : Front: L C R, Side: L R, LFE
Sampling rate : 48.0 KHz
Bit depth : 16 bits
Compression mode : Lossy
Stream size : 326 MiB (16%)
Title : DTS 5.1 @ 1536 kbps, Dub Blu-ray
Language : Russian
Default : Yes
Forced : No

На раздаче до 5 дней с 09:00:00 до 21:30:00 по Москве или до 3 сидов...


























Код:
[imgleft]http://showpic.ru/upload/280412/4f9bd2eaea4a5.png[/imgleft]
[imgleft]http://showpic.ru/upload/280412/4f9bd2ec4f703.png[/imgleft]
[imgleft]http://showpic.ru/upload/280412/4f9bd2ede49bf.png[/imgleft]
[imgleft]http://showpic.ru/upload/280412/4f9bd2ef9b81d.png[/imgleft]
[imgleft]http://showpic.ru/upload/280412/4f9bd2f107b28.png[/imgleft]
[imgleft]http://showpic.ru/upload/280412/4f9bd2f215c5f.png[/imgleft]
[imgleft]http://showpic.ru/upload/290412/4f9d0554bbd13.png[/imgleft]
[imgleft]http://showpic.ru/upload/280412/4f9bd2f320ab3.png[/imgleft]
[imgleft]http://showpic.ru/upload/290412/4f9d0555ea1a7.png[/imgleft]
[imgleft]http://showpic.ru/upload/290412/4f9d0556c380f.png[/imgleft]
[imgleft]http://showpic.ru/upload/290412/4f9d0557ac710.png[/imgleft]
[imgleft]http://showpic.ru/upload/290412/4f9d05592f7ab.png[/imgleft]

[imgleft]http://showpic.ru/upload/290412/4f9d41529fa14.png[/imgleft]
[imgleft]http://showpic.ru/upload/290412/4f9d41532451e.png[/imgleft]
[imgleft]http://showpic.ru/upload/290412/4f9d41539abec.png[/imgleft]
[imgleft]http://showpic.ru/upload/290412/4f9d415423cd6.png[/imgleft]
[imgleft]http://showpic.ru/upload/290412/4f9d4154978fe.png[/imgleft]
[imgleft]http://showpic.ru/upload/290412/4f9d4155172b0.png[/imgleft]
[imgleft]http://showpic.ru/upload/290412/4f9d415586563.png[/imgleft]
[imgleft]http://showpic.ru/upload/290412/4f9d415604463.png[/imgleft]
[imgleft]http://showpic.ru/upload/290412/4f9d415676955.png[/imgleft]
[imgleft]http://showpic.ru/upload/290412/4f9d4156e8e02.png[/imgleft]
[imgleft]http://showpic.ru/upload/290412/4f9d415776511.png[/imgleft]
[imgleft]http://showpic.ru/upload/290412/4f9d4157e91f2.png[/imgleft]




реклама партнёра


Вернуться к началу
 Профиль  
 
   Похожие торренты   Автор   Торрент   Размер 
В этой теме нет новых непрочитанных сообщений. Советник / The Counselor [триллер, драма, криминал, 2013] HDRip, Dub [Лицензия]

Dracon

534 | 5

2.18 ГБ

В этой теме нет новых непрочитанных сообщений. Теория заговора / Zulu [триллер, драма, криминал, 2013] HDRip, Mvo [лицензия]

Dracon

89 | 2

1.46 ГБ

В этой теме нет новых непрочитанных сообщений. Джо / Joe [драма, криминал, 2013] HDRip, Mvo [лицензия]

Dracon

2212 | 93

1.46 ГБ

В этой теме нет новых непрочитанных сообщений. Последний рубеж / Homefront [Боевик, криминал, 2013] HDRip, Dub [Лицензия]

Dracon

1914 | 77

1.37 ГБ

В этой теме нет новых непрочитанных сообщений. Андроид  / App [триллер, 2013] HDRip, Dub [Лицензия]

Ανδρέας

83 | 8

1.37 ГБ

В этой теме нет новых непрочитанных сообщений. Убойный уикенд / Cottage Country [боевик, комедия, криминал, 2013] HDRip, Dub [лицензия]

Dracon

124 | 2

1.46 ГБ

В этой теме нет новых непрочитанных сообщений. Мотель  / The Bag Man [триллер, криминал, 2014] HDRip, Mvo [Лицензия]

Dracon

16 | 3

1.46 ГБ


Начать новую тему Ответить на тему  [ 1 сообщение ] 




Для Мосгорсуда, Роскомнадзора и рекламодателей:: mosgorsud-torrent[собачка]yandex.ru