Торрент файл
скачать торрент магнет ссылка Добавлен: 13 июн 2013, 18:03
Размер: 2.02 ГБ
Сидеров: 0
Личеров: 2
Автор

СообщениеДобавлено: 13 июн 2013, 18:03 

Не в сети
Зам. Админа
Аватара пользователя
Дата регистрации:
02 дек 2010, 12:39
Спасибо: 12461 / 214
Сообщения: 27968

Год выпуска: 2012
Жанр: Боевик, мелодрама, комедия
Выпущено: США, Kim and Jim Productions, Panay Films, Primate Pictures
Режиссер: Дэвид Палмер, Дэкс Шепард
В ролях: Кристен Белл, Дэкс Шепард, Том Арнольд, Кристин Ченоуэт, Майкл Розенбаум, Джесс Роулэнд, Карли Хаттер, Стив Эйджи, Брэдли Купер, Джой Брайант, Кэлл Беннетт, Джон Дафф, Дэвид Кекнер, Райан Хансен, Бо Бриджес, Джейсон Бейтмен, Нат Так, Мэтт Мошер, Шон Хейс

О фильме: По сюжету бывший гонщик нарушает правило защиты свидетелей, чтобы отвезти свою девушку в Нью-Йорк, где ту ожидает работа мечты.

Качество: HDRip-AVC
Видео: MPEG4 Video (H264) 1280x534 23.976fps
Аудио: Dolby AC3 48000Hz 6ch 384kbps
Продолжительность: 01:40:07
Перевод: Профессиональный многоголосый [лицензия]



General
Unique ID : 218870378039380048645685561162551752319 (0xA4A8E6C8BD4720004E645F7E0EA7767F)
Format : Matroska
Format version : Version 2
File size : 2.02 GiB
Duration : 1h 39mn
Overall bit rate : 2 902 Kbps

Video
ID : 1
Format : AVC
Format/Info : Advanced Video Codec
Format profile : High@L4.1
Format settings, CABAC : Yes
Format settings, ReFrames : 3 frames
Codec ID : V_MPEG4/ISO/AVC
Duration : 1h 39mn
Bit rate : 2 556 Kbps
Width : 1 280 pixels
Height : 534 pixels
Display aspect ratio : 2.40:1
Frame rate mode : Variable
Frame rate : 23.976 fps
Color space : YUV
Chroma subsampling : 4:2:0
Bit depth : 8 bits
Scan type : Progressive
Bits/(Pixel*Frame) : 0.156
Stream size : 1.72 GiB (85%)
Title : Hit.and.Run.2012.720p.BluRay.DTS.x264-ThD
Writing library : x264 core 116 r2019M 9cc407d
Encoding settings : cabac=1 / ref=3 / deblock=1:-1:-1 / analyse=0x3:0x133 / me=hex / subme=7 / psy=1 / psy_rd=1.00:0.15 / mixed_ref=1 / me_range=16 / chroma_me=1 / trellis=1 / 8x8dct=1 / cqm=0 / deadzone=21,11 / fast_pskip=1 / chroma_qp_offset=-3 / threads=8 / sliced_threads=0 / nr=0 / decimate=1 / interlaced=0 / bluray_compat=0 / constrained_intra=0 / bframes=3 / b_pyramid=1 / b_adapt=2 / b_bias=0 / direct=3 / weightb=1 / open_gop=0 / weightp=2 / keyint=230 / keyint_min=23 / scenecut=40 / intra_refresh=0 / rc_lookahead=40 / rc=abr / mbtree=1 / bitrate=2556 / ratetol=1.0 / qcomp=0.60 / qpmin=10 / qpmax=51 / qpstep=4 / ip_ratio=1.40 / aq=1:1.00
Language : English
Default : Yes
Forced : No

Audio
ID : 2
Format : AC-3
Format/Info : Audio Coding 3
Mode extension : CM (complete main)
Codec ID : A_AC3
Duration : 1h 39mn
Bit rate mode : Constant
Bit rate : 384 Kbps
Channel(s) : 6 channels
Channel positions : Front: L C R, Side: L R, LFE
Sampling rate : 48.0 KHz
Bit depth : 16 bits
Compression mode : Lossy
Stream size : 274 MiB (13%)
Title : DD 5.1 @ 448 kbps - MVO, R5
Language : Russian
Default : Yes
Forced : No

На раздаче до 5 дней с 09:00:00 до 21:30:00 по Москве или до 3 сидов...


























Код:
[imgleft]http://showpic.ru/upload/280412/4f9bd2eaea4a5.png[/imgleft]
[imgleft]http://showpic.ru/upload/280412/4f9bd2ec4f703.png[/imgleft]
[imgleft]http://showpic.ru/upload/280412/4f9bd2ede49bf.png[/imgleft]
[imgleft]http://showpic.ru/upload/280412/4f9bd2ef9b81d.png[/imgleft]
[imgleft]http://showpic.ru/upload/280412/4f9bd2f107b28.png[/imgleft]
[imgleft]http://showpic.ru/upload/280412/4f9bd2f215c5f.png[/imgleft]
[imgleft]http://showpic.ru/upload/290412/4f9d0554bbd13.png[/imgleft]
[imgleft]http://showpic.ru/upload/280412/4f9bd2f320ab3.png[/imgleft]
[imgleft]http://showpic.ru/upload/290412/4f9d0555ea1a7.png[/imgleft]
[imgleft]http://showpic.ru/upload/290412/4f9d0556c380f.png[/imgleft]
[imgleft]http://showpic.ru/upload/290412/4f9d0557ac710.png[/imgleft]
[imgleft]http://showpic.ru/upload/290412/4f9d05592f7ab.png[/imgleft]

[imgleft]http://showpic.ru/upload/290412/4f9d41529fa14.png[/imgleft]
[imgleft]http://showpic.ru/upload/290412/4f9d41532451e.png[/imgleft]
[imgleft]http://showpic.ru/upload/290412/4f9d41539abec.png[/imgleft]
[imgleft]http://showpic.ru/upload/290412/4f9d415423cd6.png[/imgleft]
[imgleft]http://showpic.ru/upload/290412/4f9d4154978fe.png[/imgleft]
[imgleft]http://showpic.ru/upload/290412/4f9d4155172b0.png[/imgleft]
[imgleft]http://showpic.ru/upload/290412/4f9d415586563.png[/imgleft]
[imgleft]http://showpic.ru/upload/290412/4f9d415604463.png[/imgleft]
[imgleft]http://showpic.ru/upload/290412/4f9d415676955.png[/imgleft]
[imgleft]http://showpic.ru/upload/290412/4f9d4156e8e02.png[/imgleft]
[imgleft]http://showpic.ru/upload/290412/4f9d415776511.png[/imgleft]
[imgleft]http://showpic.ru/upload/290412/4f9d4157e91f2.png[/imgleft]




реклама партнёра


Вернуться к началу
 Профиль  
 
   Похожие торренты   Автор   Торрент   Размер 
В этой теме нет новых непрочитанных сообщений. Хватай и беги / Touch and Go [драма, мелодрама, комедия, 1986] DVDRip, Avo

salma3

31 | 34

1.37 ГБ

В этой теме нет новых непрочитанных сообщений. Хватай и беги / Freaks of Nature [Ужасы, комедия, 2015] HDRip, Mvo [iTunes]

Dracon

888 | 42

1.37 ГБ

В этой теме нет новых непрочитанных сообщений. Хватай и беги / Freaks of Nature [Ужасы, комедия, 2015] BDRip 720p, Mvo [iTunes]

Dracon

276 | 20

4.64 ГБ

В этой теме нет новых непрочитанных сообщений. Беги, сyка, беги! / Run! Bitch Run! [ужасы, триллер, 2009] DVDRip, avo

Kochesov

39 | 4

742.44 МБ

В этой теме нет новых непрочитанных сообщений. Беги, мальчик, беги / Lauf Junge lauf [боевик, драма, военный, 2013] HDTV 1080p, Mvo

salma3

62 | 9

3.88 ГБ

В этой теме нет новых непрочитанных сообщений. Беги, мальчик, беги / Lauf Junge lauf [боевик, драма, военный, 2013] HDTVRip-AVC, Mvo

salma3

95 | 5

1.37 ГБ

В этой теме нет новых непрочитанных сообщений. Беги, мальчик, беги  / Lauf Junge lauf [драма, военный, 2013] DVDRip, Mvo

Dracon

95 | 2

1.46 ГБ


Начать новую тему Ответить на тему  [ 1 сообщение ] 




Для Мосгорсуда, Роскомнадзора и рекламодателей:: mosgorsud-torrent[собачка]yandex.ru