Торрент файл
скачать торрент магнет ссылка Добавлен: 12 июн 2013, 14:37
Размер: 1.94 ГБ
Сидеров: 0
Личеров: 2
Автор

СообщениеДобавлено: 12 июн 2013, 14:37 

Не в сети
Зам. Админа
Аватара пользователя
Дата регистрации:
02 дек 2010, 12:39
Спасибо: 12650 / 214
Сообщения: 28010

Год выпуска: 2013
Жанр: Триллер
Выпущено: США, Apotheosis Media Group, Emergency Films, Troika Pictures
Режиссер: Брэд Андерсон
В ролях: Холли Берри, Эбигейл Бреслин, Моррис Честнат, Майкл Эклунд, Майкл Империоли, Рома Маффиа, Эви Томпсон, Стивен Уильямс, Жустина Мачадо

О фильме: Фильм расскажет про оператора колл-центра 911, куда поступает звонок от девочки, ставшей жертвой маньяка. Героине предстоит столкнуться со своими кошмарами, чтобы спасти девушку...

Качество: HDRip-AVC
Видео: MPEG4 Video (H264) 1280x696 23.976fps
Аудио: Dolby AC3 48000Hz 6ch 384kbps
Аудио: Dolby AC3 48000Hz 6ch 384kbps
Продолжительность: 01:34:13
Перевод: Дублированный[лицензия]



General
Unique ID : 172530121561636364183755967003876578932 (0x81CC17BDF7D2B20702F35CC1EFF6D674)
Format : Matroska
Format version : Version 2
File size : 1.94 GiB
Duration : 1h 34mn
Overall bit rate : 2 952 Kbps

Video
ID : 1
Format : AVC
Format/Info : Advanced Video Codec
Format profile : High@L4.1
Format settings, CABAC : Yes
Format settings, ReFrames : 3 frames
Codec ID : V_MPEG4/ISO/AVC
Duration : 1h 34mn
Bit rate : 2 125 Kbps
Nominal bit rate : 2 275 Kbps
Width : 1 280 pixels
Height : 696 pixels
Display aspect ratio : 16:9
Frame rate mode : Variable
Frame rate : 23.976 fps
Color space : YUV
Chroma subsampling : 4:2:0
Bit depth : 8 bits
Scan type : Progressive
Bits/(Pixel*Frame) : 0.099
Stream size : 1.40 GiB (72%)
Title : The.Call.2013.720p.BluRay.x264-SPARKS
Writing library : x264 core 116 r2019M 9cc407d
Encoding settings : cabac=1 / ref=3 / deblock=1:-1:-1 / analyse=0x3:0x133 / me=hex / subme=7 / psy=1 / psy_rd=1.00:0.15 / mixed_ref=1 / me_range=16 / chroma_me=1 / trellis=1 / 8x8dct=1 / cqm=0 / deadzone=21,11 / fast_pskip=1 / chroma_qp_offset=-3 / threads=8 / sliced_threads=0 / nr=0 / decimate=1 / interlaced=0 / bluray_compat=0 / constrained_intra=0 / bframes=3 / b_pyramid=1 / b_adapt=2 / b_bias=0 / direct=3 / weightb=1 / open_gop=0 / weightp=2 / keyint=230 / keyint_min=23 / scenecut=40 / intra_refresh=0 / rc_lookahead=40 / rc=abr / mbtree=1 / bitrate=2275 / ratetol=1.0 / qcomp=0.60 / qpmin=10 / qpmax=51 / qpstep=4 / ip_ratio=1.40 / aq=1:1.00
Language : English
Default : Yes
Forced : No

Audio #1
ID : 2
Format : AC-3
Format/Info : Audio Coding 3
Mode extension : CM (complete main)
Codec ID : A_AC3
Duration : 1h 34mn
Bit rate mode : Constant
Bit rate : 384 Kbps
Channel(s) : 6 channels
Channel positions : Front: L C R, Side: L R, LFE
Sampling rate : 48.0 KHz
Bit depth : 16 bits
Compression mode : Lossy
Stream size : 259 MiB (13%)
Title : DD 5.1 @ 448 kbps - Dub, R5
Language : Russian
Default : Yes
Forced : No

Audio #2
ID : 3
Format : AC-3
Format/Info : Audio Coding 3
Mode extension : CM (complete main)
Codec ID : A_AC3
Duration : 1h 34mn
Bit rate mode : Constant
Bit rate : 384 Kbps
Channel(s) : 6 channels
Channel positions : Front: L C R, Side: L R, LFE
Sampling rate : 48.0 KHz
Bit depth : 16 bits
Compression mode : Lossy
Stream size : 259 MiB (13%)
Title : DTS 5.1 @ 1536 kbps
Language : English
Default : Yes
Forced : No


На раздаче до 5 дней с 09:00:00 до 21:30:00 по Москве или до 3 сидов...


























Код:
[imgleft]http://showpic.ru/upload/280412/4f9bd2eaea4a5.png[/imgleft]
[imgleft]http://showpic.ru/upload/280412/4f9bd2ec4f703.png[/imgleft]
[imgleft]http://showpic.ru/upload/280412/4f9bd2ede49bf.png[/imgleft]
[imgleft]http://showpic.ru/upload/280412/4f9bd2ef9b81d.png[/imgleft]
[imgleft]http://showpic.ru/upload/280412/4f9bd2f107b28.png[/imgleft]
[imgleft]http://showpic.ru/upload/280412/4f9bd2f215c5f.png[/imgleft]
[imgleft]http://showpic.ru/upload/290412/4f9d0554bbd13.png[/imgleft]
[imgleft]http://showpic.ru/upload/280412/4f9bd2f320ab3.png[/imgleft]
[imgleft]http://showpic.ru/upload/290412/4f9d0555ea1a7.png[/imgleft]
[imgleft]http://showpic.ru/upload/290412/4f9d0556c380f.png[/imgleft]
[imgleft]http://showpic.ru/upload/290412/4f9d0557ac710.png[/imgleft]
[imgleft]http://showpic.ru/upload/290412/4f9d05592f7ab.png[/imgleft]

[imgleft]http://showpic.ru/upload/290412/4f9d41529fa14.png[/imgleft]
[imgleft]http://showpic.ru/upload/290412/4f9d41532451e.png[/imgleft]
[imgleft]http://showpic.ru/upload/290412/4f9d41539abec.png[/imgleft]
[imgleft]http://showpic.ru/upload/290412/4f9d415423cd6.png[/imgleft]
[imgleft]http://showpic.ru/upload/290412/4f9d4154978fe.png[/imgleft]
[imgleft]http://showpic.ru/upload/290412/4f9d4155172b0.png[/imgleft]
[imgleft]http://showpic.ru/upload/290412/4f9d415586563.png[/imgleft]
[imgleft]http://showpic.ru/upload/290412/4f9d415604463.png[/imgleft]
[imgleft]http://showpic.ru/upload/290412/4f9d415676955.png[/imgleft]
[imgleft]http://showpic.ru/upload/290412/4f9d4156e8e02.png[/imgleft]
[imgleft]http://showpic.ru/upload/290412/4f9d415776511.png[/imgleft]
[imgleft]http://showpic.ru/upload/290412/4f9d4157e91f2.png[/imgleft]



Вернуться к началу
 Профиль  
 
   Похожие торренты   Автор   Торрент   Размер 
В этой теме нет новых непрочитанных сообщений. Вызов / Defiance [боевик, триллер, драма, военный, история, 2008] BDRip 720p , Dvo

salma3

76 | 46

11.99 ГБ

В этой теме нет новых непрочитанных сообщений. Two Worlds II - Call of the Tenebrae [RPG, 3D, 2017] [Лицензия]

DuraAce

5 | 6

10.86 ГБ

В этой теме нет новых непрочитанных сообщений. S.T.A.L.K.E.R.: Call of Pripyat - Call of Chernobyl [Action, Shooter, 3D, 1st Person, 2016] [RePack]

Sykre

5 | 2

6.34 ГБ

В этой теме нет новых непрочитанных сообщений. Call of Duty: Black Ops 3 [Action (Shooter), 3D, 1st Person, 2015] [Лицензия]

Dracon

786 | 868

53.04 ГБ

В этой теме нет новых непрочитанных сообщений. Call of Duty: Modern Warfare 3 [Action (Shooter), 3D, 1st Person, 2011] [Лицензия]

salma3

0 | 0

54.59 ГБ

В этой теме нет новых непрочитанных сообщений. Call of Duty: Modern Warfare Remastered [Action (Shooter), 3D, 1st Person, 2016] [Лицензия]

salma3

10 | 561

41.9 ГБ

В этой теме нет новых непрочитанных сообщений. Call of Duty: Black Ops - Collection Edition [Action, Shooter, 3D, 1st Person, 2010] [Лицензия]

salma3

149 | 192

20.64 ГБ


Начать новую тему Ответить на тему  [ 1 сообщение ] 




Для Мосгорсуда, Роскомнадзора и рекламодателей:: mosgorsud-torrent[собачка]yandex.ru
cron