Торрент файл
скачать торрент магнет ссылка Добавлен: 08 июн 2013, 20:10
Размер: 1.98 ГБ
Сидеров: 0
Личеров: 2
Автор

СообщениеДобавлено: 08 июн 2013, 20:10 

Не в сети
Зам. Админа
Аватара пользователя
Дата регистрации:
02 дек 2010, 12:39
Спасибо: 12461 / 214
Сообщения: 27968
Год выхода: 2010
Жанр: криминал, драма, триллер
Режиссер: Такеши Китано

В ролях: Такеши Китано, Рё Касэ, Тошиюки Нишид,а Томокадзу Миура, Хирофуми Арай, Ютака Мацусигэ, Акира Накао, Кен Митсуйши, Кента Киритани, Мачико Оно

О фильме:
В безжалостной борьбе за власть несколько кланов якудза оспаривают расположение Крестного отца. Главари поднимаются по иерархической лестнице в организации, не пренебрегая заговорами и лживыми клятвами верности. Опытный якудза Отомо наблюдает за развитием карьеры своих товарищей: оставив позади замысловатые татуировки и отрубленные пальцы, они штурмуют мир финансов. В мире коррупции, где царят предательство и месть, ни на минуту не прекращается борьба за достижение вершины или просто за выживание. Это — мир, где героев не существует…



Выпущено: Япония / Bandai Visual Company, Office Kitano, Omnibus Japan
Продолжительность: 01:49:43
Озвучивание: Профессиональное (многоголосое) [лицензия]

Формат: MKV
Качество: HDRip-AVC
Видео: MPEG4 Video (H264) 1280x546 (485:273) 23.976fps 2 230 Kbps
Аудио: Dolby AC3 48000Hz 6ch 384kbps



General
Unique ID : 319342620660397583265604785661414460366 (0xF03F26CCF4FCD2F6EA45F018E3BFCBCE)
Format : Matroska
Format version : Version 2
File size : 1.98 GiB
Duration : 1h 49mn
Overall bit rate : 2 587 Kbps
Encoded date : UTC 2013-06-08 08:25:31

Video
ID : 1
Format : AVC
Format/Info : Advanced Video Codec
Format profile : High@L4.1
Format settings, CABAC : Yes
Format settings, ReFrames : 3 frames
Codec ID : V_MPEG4/ISO/AVC
Duration : 1h 49mn
Bit rate : 2 230 Kbps
Width : 1 280 pixels
Height : 546 pixels
Display aspect ratio : 16:9
Original display aspect ratio : 16:9
Frame rate mode : Variable
Frame rate : 23.976 fps
Color space : YUV
Chroma subsampling : 4:2:0
Bit depth : 8 bits
Scan type : Progressive
Bits/(Pixel*Frame) : 0.133
Stream size : 1.65 GiB (83%)
Title : Autoreiji 2010 720p Bluray DD5.1 x264-ESiR
Writing library : x264 core 128 r2216M 198a7ea
Encoding settings : cabac=1 / ref=3 / deblock=1:-1:-1 / analyse=0x3:0x133 / me=hex / subme=7 / psy=1 / psy_rd=1.00:0.15 / mixed_ref=1 / me_range=16 / chroma_me=1 / trellis=1 / 8x8dct=1 / cqm=0 / deadzone=21,11 / fast_pskip=1 / chroma_qp_offset=-3 / threads=4 / lookahead_threads=1 / sliced_threads=0 / nr=0 / decimate=1 / interlaced=0 / bluray_compat=0 / constrained_intra=0 / bframes=3 / b_pyramid=1 / b_adapt=2 / b_bias=0 / direct=3 / weightb=1 / open_gop=0 / weightp=2 / keyint=230 / keyint_min=23 / scenecut=40 / intra_refresh=0 / rc_lookahead=40 / rc=abr / mbtree=1 / bitrate=2230 / ratetol=1.0 / qcomp=0.60 / qpmin=10 / qpmax=51 / qpstep=4 / ip_ratio=1.40 / aq=1:1.00
Language : English
Default : Yes
Forced : No

Audio
ID : 2
Format : AC-3
Format/Info : Audio Coding 3
Mode extension : CM (complete main)
Codec ID : A_AC3
Duration : 1h 49mn
Bit rate mode : Constant
Bit rate : 384 Kbps
Channel(s) : 6 channels
Channel positions : Front: L C R, Side: L R, LFE
Sampling rate : 48.0 KHz
Bit depth : 16 bits
Compression mode : Lossy
Delay relative to video : 27ms
Stream size : 301 MiB (15%)
Title : DD 5.1 @ 448 kbps - MVO, R5
Language : Russian
Default : Yes
Forced : No
На раздаче до 5 дней с 09:00:00 до 21:30:00 по Москве или до 3 сидов...


























Код:
[imgleft]http://showpic.ru/upload/280412/4f9bd2eaea4a5.png[/imgleft]
[imgleft]http://showpic.ru/upload/280412/4f9bd2ec4f703.png[/imgleft]
[imgleft]http://showpic.ru/upload/280412/4f9bd2ede49bf.png[/imgleft]
[imgleft]http://showpic.ru/upload/280412/4f9bd2ef9b81d.png[/imgleft]
[imgleft]http://showpic.ru/upload/280412/4f9bd2f107b28.png[/imgleft]
[imgleft]http://showpic.ru/upload/280412/4f9bd2f215c5f.png[/imgleft]
[imgleft]http://showpic.ru/upload/290412/4f9d0554bbd13.png[/imgleft]
[imgleft]http://showpic.ru/upload/280412/4f9bd2f320ab3.png[/imgleft]
[imgleft]http://showpic.ru/upload/290412/4f9d0555ea1a7.png[/imgleft]
[imgleft]http://showpic.ru/upload/290412/4f9d0556c380f.png[/imgleft]
[imgleft]http://showpic.ru/upload/290412/4f9d0557ac710.png[/imgleft]
[imgleft]http://showpic.ru/upload/290412/4f9d05592f7ab.png[/imgleft]

[imgleft]http://showpic.ru/upload/290412/4f9d41529fa14.png[/imgleft]
[imgleft]http://showpic.ru/upload/290412/4f9d41532451e.png[/imgleft]
[imgleft]http://showpic.ru/upload/290412/4f9d41539abec.png[/imgleft]
[imgleft]http://showpic.ru/upload/290412/4f9d415423cd6.png[/imgleft]
[imgleft]http://showpic.ru/upload/290412/4f9d4154978fe.png[/imgleft]
[imgleft]http://showpic.ru/upload/290412/4f9d4155172b0.png[/imgleft]
[imgleft]http://showpic.ru/upload/290412/4f9d415586563.png[/imgleft]
[imgleft]http://showpic.ru/upload/290412/4f9d415604463.png[/imgleft]
[imgleft]http://showpic.ru/upload/290412/4f9d415676955.png[/imgleft]
[imgleft]http://showpic.ru/upload/290412/4f9d4156e8e02.png[/imgleft]
[imgleft]http://showpic.ru/upload/290412/4f9d415776511.png[/imgleft]
[imgleft]http://showpic.ru/upload/290412/4f9d4157e91f2.png[/imgleft]




реклама партнёра


Вернуться к началу
 Профиль  
 
   Похожие торренты   Автор   Торрент   Размер 
В этой теме нет новых непрочитанных сообщений. Беспредел [Драма, криминал, 1989] DVDRip-AVC

Dracon

224 | 9

2.09 ГБ

В этой теме нет новых непрочитанных сообщений. Советник / The Counselor [триллер, драма, криминал, 2013] HDRip, Dub [Лицензия]

Dracon

535 | 5

2.18 ГБ

В этой теме нет новых непрочитанных сообщений. Теория заговора / Zulu [триллер, драма, криминал, 2013] HDRip, Mvo [лицензия]

Dracon

89 | 2

1.46 ГБ

В этой теме нет новых непрочитанных сообщений. Саботаж / Sabotage [боевик, триллер, драма, криминал, 2014] HDRip, Dub [Лицензия]

Dracon

1150 | 44

2.15 ГБ

В этой теме нет новых непрочитанных сообщений. Анаморф / Anamorph [ужасы, триллер, криминал, драма, 2007] HDRip, Mvo [Лицензия]

salma3

9 | 3

1.46 ГБ

В этой теме нет новых непрочитанных сообщений. Игрок / The Gambler (Руперт Уайатт) [Триллер, Драма, Криминал, 2014] HDRip-AVC, Dub [Лицензия]

Dracon

1082 | 15

1.99 ГБ

В этой теме нет новых непрочитанных сообщений. Игрок / The Gambler (Руперт Уайатт) [Триллер, Драма, Криминал, 2014] HDRip, Dub [Лицензия]

Dracon

6812 | 175

1.37 ГБ


Начать новую тему Ответить на тему  [ 1 сообщение ] 




Для Мосгорсуда, Роскомнадзора и рекламодателей:: mosgorsud-torrent[собачка]yandex.ru
cron