Торрент файл
скачать торрент магнет ссылка Добавлен: 07 июн 2013, 18:52
Размер: 2.18 ГБ
Сидеров: 6
Личеров: 4
Статус: (salma3)
Автор

СообщениеДобавлено: 07 июн 2013, 18:52 

В сети
Супермодератор
Аватара пользователя
Дата регистрации:
15 фев 2012, 16:44
Возраст: 27
Спасибо: 5130 / 2089
Сообщения: 17371

Дьявол в деталях / The Devil's in the Details

Год выхода: 2013
Жанр: триллер
Режиссер: Уэймон Бун
В ролях: Рэй Лиотта, Эмилио Ривера, Джоэль Томпсон, Рэймонд Дж. Бэрри, Ноэль Гульеми, Лэйн Гаррисон, Jake Jacobson, Тина Ивлев, Артуро дель Пуэрто, Альберт Такур

О фильме:
Обычное утро обычного дня в Ногалесе, штат Аризона. Жизнь бывшего военнослужащего Томаса Конрада кардинально меняется, когда его похищают члены наркокартеля, чтобы с его помощью переправить наркотики через границу.



Страна: США
Студия: Dark Details, Hollywood Media Bridge
Продолжительность: 01:40:18
Перевод: Любительский [одноголосый] [den904]

Файл
Кодек: AVC
Качество: BDRip-AVC
Видео: 1024x432, 2339 kbps, 23,976 fps, 0.221 Bits/(Pixel*Frame)
Звук:
AC3, 48 kHz, 384 kbps, 5 ch [RUS]
AC3, 48 kHz, 384 kbps, 5 ch [ENG]
Субтитры: Отсутствуют

Семпл

Релиз от:

Автор рипа: _Bathory_

General
Unique ID : 171552937195755815268787430097602535068 (0x810FE4D545E8618C945F6B5E3C1CDE9C)
Complete name : H:The.Devils.in.the.Details.2013.BDRip_AVC.mkv
Format : Matroska
Format version : Version 2
File size : 2.18 GiB
Duration : 1h 40mn
Overall bit rate : 3 105 Kbps
Encoded date : UTC 2013-06-07 09:39:52
Writing application : mkvmerge v6.1.0 ('Old Devil') built on Mar 2 2013 14:32:37
Writing library : libebml v1.3.0 + libmatroska v1.4.0

Video
ID : 1
Format : AVC
Format/Info : Advanced Video Codec
Format profile : High@L4.1
Format settings, CABAC : Yes
Format settings, ReFrames : 16 frames
Codec ID : V_MPEG4/ISO/AVC
Duration : 1h 40mn
Bit rate : 2 339 Kbps
Width : 1 024 pixels
Height : 432 pixels
Display aspect ratio : 2.40:1
Frame rate mode : Constant
Frame rate : 23.976 fps
Color space : YUV
Chroma subsampling : 4:2:0
Bit depth : 8 bits
Scan type : Progressive
Bits/(Pixel*Frame) : 0.221
Stream size : 1.59 GiB (73%)
Writing library : x264 core 130 r2273 b3065e6
Encoding settings : cabac=1 / ref=16 / deblock=1:-1:-1 / analyse=0x3:0x133 / me=umh / subme=11 / psy=1 / psy_rd=1.00:0.00 / mixed_ref=1 / me_range=32 / chroma_me=1 / trellis=2 / 8x8dct=1 / cqm=0 / deadzone=21,11 / fast_pskip=1 / chroma_qp_offset=-2 / threads=6 / lookahead_threads=1 / sliced_threads=0 / nr=0 / decimate=1 / interlaced=0 / bluray_compat=0 / constrained_intra=0 / bframes=8 / b_pyramid=2 / b_adapt=2 / b_bias=0 / direct=3 / weightb=1 / open_gop=0 / weightp=2 / keyint=240 / keyint_min=23 / scenecut=40 / intra_refresh=0 / rc_lookahead=70 / rc=2pass / mbtree=1 / bitrate=2339 / ratetol=1.0 / qcomp=0.60 / qpmin=0 / qpmax=60 / qpstep=4 / cplxblur=20.0 / qblur=0.5 / vbv_maxrate=62500 / vbv_bufsize=78125 / nal_hrd=none / ip_ratio=1.40 / aq=1:1.00
Default : Yes
Forced : No

Audio #1
ID : 2
Format : AC-3
Format/Info : Audio Coding 3
Mode extension : CM (complete main)
Format settings, Endianness : Big
Codec ID : A_AC3
Duration : 1h 40mn
Bit rate mode : Constant
Bit rate : 384 Kbps
Channel(s) : 5 channels
Channel positions : Front: L C R, Side: L R
Sampling rate : 48.0 KHz
Bit depth : 16 bits
Compression mode : Lossy
Stream size : 275 MiB (12%)
Language : Russian
Default : Yes
Forced : No

Audio #2
ID : 3
Format : AC-3
Format/Info : Audio Coding 3
Mode extension : CM (complete main)
Format settings, Endianness : Big
Codec ID : A_AC3
Duration : 1h 40mn
Bit rate mode : Constant
Bit rate : 384 Kbps
Channel(s) : 5 channels
Channel positions : Front: L C R, Side: L R
Sampling rate : 48.0 KHz
Bit depth : 16 bits
Compression mode : Lossy
Stream size : 275 MiB (12%)
Language : English
Default : No
Forced : No




реклама партнёра


Вернуться к началу
 Профиль Отправить личное сообщение  
 
   Похожие торренты   Автор   Торрент   Размер 
В этой теме нет новых непрочитанных сообщений. Дьявол, которого ты знаешь / The Devil You Know [триллер, детектив, 2013] WEB-DLRip, Avo

salma3

91 | 10

1.2 ГБ

В этой теме нет новых непрочитанных сообщений. Крампус: Рождественский дьявол / Krampus: The Christmas Devil [ужасы, боевик, триллер, 2013] HDRip, Avo

salma3

218 | 18

1.46 ГБ

В этой теме нет новых непрочитанных сообщений. Дьявол в голубом платье / Devil in a Blue Dress [триллер, драма, криминал, 1995] BDRip 720p, Mvo+Sub

salma3

108 | 5

4.37 ГБ

В этой теме нет новых непрочитанных сообщений. И явился Дьявол / Here Comes the Devil [Ужасы, триллер, 2012] DVDRip, Avo

salma3

56 | 5

1.56 ГБ

В этой теме нет новых непрочитанных сообщений. Ангел и Дьявол / Презираемая / Глумление / Angel and Devil / Scorned [Триллер, 1994] DVDRip, Avo

salma3

92 | 6

1.46 ГБ

В этой теме нет новых непрочитанных сообщений. Дьявол во плоти 2 / Способная ученица / Devil in the Flesh 2 / Teacher's Pet [Триллер, драма, 2000] DVDRip, Mvo

salma3

941 | 29

1.31 ГБ

В этой теме нет новых непрочитанных сообщений. Здесь живёт дьявол / The Devil Lives Here / O Diabo Mora Aqui [ужасы, фэнтези, триллер, 2015] DVDRip, Avo

salma3

114 | 5

1.37 ГБ


Начать новую тему Ответить на тему  [ 1 сообщение ] 




Для Мосгорсуда, Роскомнадзора и рекламодателей:: mosgorsud-torrent[собачка]yandex.ru