Торрент файл
скачать торрент магнет ссылка Добавлен: 06 июн 2013, 12:16
Размер: 1.99 ГБ
Сидеров: 0
Личеров: 1
Автор

СообщениеДобавлено: 06 июн 2013, 12:16 

Не в сети
Зам. Админа
Аватара пользователя
Дата регистрации:
02 дек 2010, 12:39
Спасибо: 12461 / 214
Сообщения: 27968


Год выхода: 2013
Жанр:Ужасы, фэнтези, боевик
Режиссер: Томми Виркола
В ролях: Джереми Реннер, Джемма Артертон, Фамке Янссен, Зои Белл, Петер Стормаре, Томас Манн, Ингрид Болсай Бердал, Робин Аткин Даунс, Дерек Мирс, Моник Гэндертон

О фильме: Едва не погибнув в лапах ужасной ведьмы, Гензель и Гретель стали только сильнее. Одержимые местью, они ведут отчаянную борьбу со злом, даже не подозревая, что их поджидает нечто куда более опасное… собственное прошлое…



Страна: США, Германия
Продолжительность: 01:37:56
Перевод: Дублированный [Лицензия]

Кодек: AVC
Качество: HDRip-AVC
Видео: MPEG4 Video (H264) 1280x528 (1267:528) 23.976fps 2 811 Kbps
Aудио: Dolby AC3 48000Hz 6ch 448kbps
Субтитры: Отсутствуют




General
Unique ID : 288686396413428198472905151446031748233 (0xD92EFA3FFEB9B574560F6D6B0CC74C89)
Format : Matroska
Format version : Version 2
File size : 1.99 GiB
Duration : 1h 27mn
Overall bit rate : 3 238 Kbps
Movie name : Hansel & Gretel: Witch Hunters (2013) Theatrical Cut by Killbrain
Encoded date : UTC 2013-06-05 15:22:37

Video
ID : 1
Format : AVC
Format/Info : Advanced Video Codec
Format profile : High@L4.1
Format settings, CABAC : Yes
Format settings, ReFrames : 3 frames
Codec ID : V_MPEG4/ISO/AVC
Duration : 1h 27mn
Bit rate : 2 811 Kbps
Width : 1 280 pixels
Height : 528 pixels
Display aspect ratio : 2.40:1
Frame rate mode : Variable
Frame rate : 23.976 fps
Color space : YUV
Chroma subsampling : 4:2:0
Bit depth : 8 bits
Scan type : Progressive
Bits/(Pixel*Frame) : 0.173
Stream size : 1.67 GiB (84%)
Title : Hansel & Gretel: Witch Hunters (2013) Theatrical Cut
Writing library : x264 core 128 r2216M 198a7ea
Encoding settings : cabac=1 / ref=3 / deblock=1:-1:-1 / analyse=0x3:0x133 / me=hex / subme=7 / psy=1 / psy_rd=1.00:0.15 / mixed_ref=1 / me_range=16 / chroma_me=1 / trellis=1 / 8x8dct=1 / cqm=0 / deadzone=21,11 / fast_pskip=1 / chroma_qp_offset=-3 / threads=4 / lookahead_threads=1 / sliced_threads=0 / nr=0 / decimate=1 / interlaced=0 / bluray_compat=0 / constrained_intra=0 / bframes=3 / b_pyramid=1 / b_adapt=2 / b_bias=0 / direct=3 / weightb=1 / open_gop=0 / weightp=2 / keyint=230 / keyint_min=23 / scenecut=40 / intra_refresh=0 / rc_lookahead=40 / rc=abr / mbtree=1 / bitrate=2811 / ratetol=1.0 / qcomp=0.60 / qpmin=10 / qpmax=51 / qpstep=4 / ip_ratio=1.40 / aq=1:1.00
Language : English
Default : Yes
Forced : No

Audio
ID : 2
Format : AC-3
Format/Info : Audio Coding 3
Mode extension : CM (complete main)
Codec ID : A_AC3
Duration : 1h 27mn
Bit rate mode : Constant
Bit rate : 448 Kbps
Channel(s) : 6 channels
Channel positions : Front: L C R, Side: L R, LFE
Sampling rate : 48.0 KHz
Bit depth : 16 bits
Compression mode : Lossy
Delay relative to video : 27ms
Stream size : 282 MiB (14%)
Language : Russian
Default : Yes
Forced : No


На раздаче до 5 дней с 09:00:00 до 21:30:00 по Москве или до 3 сидов...


























Код:
[imgleft]http://showpic.ru/upload/280412/4f9bd2eaea4a5.png[/imgleft]
[imgleft]http://showpic.ru/upload/280412/4f9bd2ec4f703.png[/imgleft]
[imgleft]http://showpic.ru/upload/280412/4f9bd2ede49bf.png[/imgleft]
[imgleft]http://showpic.ru/upload/280412/4f9bd2ef9b81d.png[/imgleft]
[imgleft]http://showpic.ru/upload/280412/4f9bd2f107b28.png[/imgleft]
[imgleft]http://showpic.ru/upload/280412/4f9bd2f215c5f.png[/imgleft]
[imgleft]http://showpic.ru/upload/290412/4f9d0554bbd13.png[/imgleft]
[imgleft]http://showpic.ru/upload/280412/4f9bd2f320ab3.png[/imgleft]
[imgleft]http://showpic.ru/upload/290412/4f9d0555ea1a7.png[/imgleft]
[imgleft]http://showpic.ru/upload/290412/4f9d0556c380f.png[/imgleft]
[imgleft]http://showpic.ru/upload/290412/4f9d0557ac710.png[/imgleft]
[imgleft]http://showpic.ru/upload/290412/4f9d05592f7ab.png[/imgleft]

[imgleft]http://showpic.ru/upload/290412/4f9d41529fa14.png[/imgleft]
[imgleft]http://showpic.ru/upload/290412/4f9d41532451e.png[/imgleft]
[imgleft]http://showpic.ru/upload/290412/4f9d41539abec.png[/imgleft]
[imgleft]http://showpic.ru/upload/290412/4f9d415423cd6.png[/imgleft]
[imgleft]http://showpic.ru/upload/290412/4f9d4154978fe.png[/imgleft]
[imgleft]http://showpic.ru/upload/290412/4f9d4155172b0.png[/imgleft]
[imgleft]http://showpic.ru/upload/290412/4f9d415586563.png[/imgleft]
[imgleft]http://showpic.ru/upload/290412/4f9d415604463.png[/imgleft]
[imgleft]http://showpic.ru/upload/290412/4f9d415676955.png[/imgleft]
[imgleft]http://showpic.ru/upload/290412/4f9d4156e8e02.png[/imgleft]
[imgleft]http://showpic.ru/upload/290412/4f9d415776511.png[/imgleft]
[imgleft]http://showpic.ru/upload/290412/4f9d4157e91f2.png[/imgleft]




реклама партнёра


Вернуться к началу
 Профиль  
 
   Похожие торренты   Автор   Торрент   Размер 
В этой теме нет новых непрочитанных сообщений. Последний охотник на ведьм / The Last Witch Hunter [фэнтези, боевик, приключения, 2015] HDRip, Dub [iTunes]

Dracon

1400 | 33

1.37 ГБ

В этой теме нет новых непрочитанных сообщений. Последний охотник на ведьм / The Last Witch Hunter [фэнтези, боевик, приключения, 2015] HDRip, Dub [iTunes]

Dracon

235 | 5

2.05 ГБ

В этой теме нет новых непрочитанных сообщений. Охотники за привидениями / Ghostbusters (Фантастика, фэнтези, боевик, комедия, 2016) BDRip-AVC | Theatrical Cut | Лицензия

marya111

142 | 14

2.19 ГБ

В этой теме нет новых непрочитанных сообщений. Охотники за привидениями / Ghostbusters (Фантастика, фэнтези, боевик, комедия, 2016) BDRip 1080p | Theatrical Cut | 3D-Video | HSBS | Лицензия

marya111

158 | 29

13.17 ГБ

В этой теме нет новых непрочитанных сообщений. Гензель против Гретель / Hansel Vs. Gretel [ужасы, 2015] WEB-DLRip, Avo

salma3

307 | 10

1.37 ГБ

В этой теме нет новых непрочитанных сообщений. Гензель против Гретель / Hansel Vs. Gretel [ужасы, 2015] WEB-DL 720p, Avo

salma3

56 | 5

2.8 ГБ

В этой теме нет новых непрочитанных сообщений. Последний охотник на ведьм / The Last Witch Hunter [фэнтези, боевик, приключения, 2015] DVD5, Dub+Sub

salma3

130 | 42

4.38 ГБ


СообщениеДобавлено: 06 июн 2013, 15:17 

Не в сети
Аватара пользователя
Дата регистрации:
11 мар 2012, 18:55
Спасибо: 0 / 4
Сообщения: 13
Спасибо тебе за MKVшку на 2 гига. Побольше бы релизов в таком качестве и размере.
А фильм довольно неплох, мне понравился.


Вернуться к началу
 Профиль  
 

СообщениеДобавлено: 06 июн 2013, 15:23 

Не в сети
Зам. Админа
Аватара пользователя
Дата регистрации:
02 дек 2010, 12:39
Спасибо: 12461 / 214
Сообщения: 27968
bonatursky писал(а):
Спасибо тебе за MKVшку на 2 гига. Побольше бы релизов в таком качестве и размере.
А фильм довольно неплох, мне понравился.

Ага, спасибо...буду ехать тем же курсом, если нравиться...


Вернуться к началу
 Профиль  
 
Начать новую тему Ответить на тему  [ Сообщений: 3 ] 




Для Мосгорсуда, Роскомнадзора и рекламодателей:: mosgorsud-torrent[собачка]yandex.ru