Торрент файл
скачать торрент магнет ссылка Добавлен: 05 июн 2013, 14:55
Размер: 2.08 ГБ
Сидеров: 0
Личеров: 3
Автор

СообщениеДобавлено: 05 июн 2013, 14:55 

Не в сети
Зам. Админа
Аватара пользователя
Дата регистрации:
02 дек 2010, 12:39
Спасибо: 12461 / 214
Сообщения: 27968

Год выпуска: 2012
Страна: США
Режиссер: Дерек Сиенфрэнс
Жанр: драма, криминал
Продолжительность: 02:20:13

В ролях: Брэдли Купер, Райан Гослинг, Ева Мендес, Бен Мендельсон, Роуз Бирн, Махершалалхашбаз Али, Дэйн ДеХаан, Эмори Коэн, Рэй Лиотта, Харрис Юлин

Описание: История профессионального мотогонщика, который начинает грабить банки, чтобы содержать новорожденного сына. Однажды на его пути встает полицейский, и столкновение парней перерастает в личную войну.

Качество: BDRip-AVC [Blu-Ray]
Формат: Matroska
Видео: MPEG4 Video (H264) 1280x720 24fps
Аудио: Dolby AC3 48000Hz 6ch 384 Kbps [Профессиональный (полное дублирование) [Лицензия]]





General
Unique ID : 122149142675295300268881670380638544141 (0x5BE511B43471F0AB9953434C1621A10D)
Format : Matroska
Format version : Version 2
File size : 2.08 GiB
Duration : 2h 20mn
Overall bit rate : 2 126 Kbps

Video
ID : 1
Format : AVC
Format/Info : Advanced Video Codec
Format profile : High@L4.1
Format settings, CABAC : Yes
Format settings, ReFrames : 3 frames
Codec ID : V_MPEG4/ISO/AVC
Duration : 2h 20mn
Bit rate : 1 759 Kbps
Width : 1 280 pixels
Height : 720 pixels
Display aspect ratio : 16:9
Frame rate mode : Variable
Frame rate : 24.000 fps
Color space : YUV
Chroma subsampling : 4:2:0
Bit depth : 8 bits
Scan type : Progressive
Bits/(Pixel*Frame) : 0.080
Stream size : 1.66 GiB (80%)
Writing library : x264 core 116 r2019M 9cc407d
Encoding settings : cabac=1 / ref=3 / deblock=1:-1:-1 / analyse=0x3:0x133 / me=hex / subme=7 / psy=1 / psy_rd=1.00:0.15 / mixed_ref=1 / me_range=16 / chroma_me=1 / trellis=1 / 8x8dct=1 / cqm=0 / deadzone=21,11 / fast_pskip=1 / chroma_qp_offset=-3 / threads=8 / sliced_threads=0 / nr=0 / decimate=1 / interlaced=0 / bluray_compat=0 / constrained_intra=0 / bframes=3 / b_pyramid=1 / b_adapt=2 / b_bias=0 / direct=3 / weightb=1 / open_gop=0 / weightp=2 / keyint=240 / keyint_min=24 / scenecut=40 / intra_refresh=0 / rc_lookahead=40 / rc=abr / mbtree=1 / bitrate=1759 / ratetol=1.0 / qcomp=0.60 / qpmin=10 / qpmax=51 / qpstep=4 / ip_ratio=1.40 / aq=1:1.00
Default : Yes
Forced : No

Audio
ID : 2
Format : AC-3
Format/Info : Audio Coding 3
Mode extension : CM (complete main)
Codec ID : A_AC3
Duration : 2h 20mn
Bit rate mode : Constant
Bit rate : 384 Kbps
Channel(s) : 6 channels
Channel positions : Front: L C R, Side: L R, LFE
Sampling rate : 48.0 KHz
Bit depth : 16 bits
Compression mode : Lossy
Stream size : 385 MiB (18%)
Language : Russian
Default : Yes
Forced : No

На раздаче до 5 дней с 09:00:00 до 21:30:00 по Москве или до 3 сидов...


























Код:
[imgleft]http://showpic.ru/upload/280412/4f9bd2eaea4a5.png[/imgleft]
[imgleft]http://showpic.ru/upload/280412/4f9bd2ec4f703.png[/imgleft]
[imgleft]http://showpic.ru/upload/280412/4f9bd2ede49bf.png[/imgleft]
[imgleft]http://showpic.ru/upload/280412/4f9bd2ef9b81d.png[/imgleft]
[imgleft]http://showpic.ru/upload/280412/4f9bd2f107b28.png[/imgleft]
[imgleft]http://showpic.ru/upload/280412/4f9bd2f215c5f.png[/imgleft]
[imgleft]http://showpic.ru/upload/290412/4f9d0554bbd13.png[/imgleft]
[imgleft]http://showpic.ru/upload/280412/4f9bd2f320ab3.png[/imgleft]
[imgleft]http://showpic.ru/upload/290412/4f9d0555ea1a7.png[/imgleft]
[imgleft]http://showpic.ru/upload/290412/4f9d0556c380f.png[/imgleft]
[imgleft]http://showpic.ru/upload/290412/4f9d0557ac710.png[/imgleft]
[imgleft]http://showpic.ru/upload/290412/4f9d05592f7ab.png[/imgleft]

[imgleft]http://showpic.ru/upload/290412/4f9d41529fa14.png[/imgleft]
[imgleft]http://showpic.ru/upload/290412/4f9d41532451e.png[/imgleft]
[imgleft]http://showpic.ru/upload/290412/4f9d41539abec.png[/imgleft]
[imgleft]http://showpic.ru/upload/290412/4f9d415423cd6.png[/imgleft]
[imgleft]http://showpic.ru/upload/290412/4f9d4154978fe.png[/imgleft]
[imgleft]http://showpic.ru/upload/290412/4f9d4155172b0.png[/imgleft]
[imgleft]http://showpic.ru/upload/290412/4f9d415586563.png[/imgleft]
[imgleft]http://showpic.ru/upload/290412/4f9d415604463.png[/imgleft]
[imgleft]http://showpic.ru/upload/290412/4f9d415676955.png[/imgleft]
[imgleft]http://showpic.ru/upload/290412/4f9d4156e8e02.png[/imgleft]
[imgleft]http://showpic.ru/upload/290412/4f9d415776511.png[/imgleft]
[imgleft]http://showpic.ru/upload/290412/4f9d4157e91f2.png[/imgleft]




реклама партнёра


Вернуться к началу
 Профиль  
 
   Похожие торренты   Автор   Торрент   Размер 
В этой теме нет новых непрочитанных сообщений. Одинокое место для смерти / Похищенная / A Lonely Place to Die [триллер, драма, боевик, криминал, 2011] BDRip, Mvo [Лицензия]

salma3

123 | 6

1.45 ГБ

В этой теме нет новых непрочитанных сообщений. Проклятое место / Lost Place [ужасы, триллер, 2013] BDRip 1080p, Mvo

salma3

68 | 11

4.13 ГБ

В этой теме нет новых непрочитанных сообщений. Проклятое место / Lost Place [ужасы, триллер, детектив , 2013] WEBRip, Mvo

salma3

2739 | 188

1.36 ГБ

В этой теме нет новых непрочитанных сообщений. Проклятое место  / Lost Place (Торстен Клайн) [ужасы, триллер, детектив, 2013] HDRip, Mvo

Dracon

2 | 4

1.37 ГБ

В этой теме нет новых непрочитанных сообщений. Место под солнцем / En plats i solen [триллер, драма, криминал, 2012] HDRip, Mvo

salma3

148 | 7

1.37 ГБ

В этой теме нет новых непрочитанных сообщений. Одинокое место для смерти / A lonely place for dying (Джастин Юджин Эванс / Justin Eugene Evans) [2012г., шпионский триллер, WEB-DL 720p] VO+ sub

Alfredovich

15 | 7

3.58 ГБ

В этой теме нет новых непрочитанных сообщений. Эмпайр Стэйт / Empire State [криминал, драма, 2012] BDRip, Mvo [лицензия]

Dracon

120 | 4

2.2 ГБ


Начать новую тему Ответить на тему  [ 1 сообщение ] 




Для Мосгорсуда, Роскомнадзора и рекламодателей:: mosgorsud-torrent[собачка]yandex.ru