Торрент файл
скачать торрент магнет ссылка Добавлен: 04 июн 2013, 17:48
Размер: 2.03 ГБ
Сидеров: 0
Личеров: 2
Автор

СообщениеДобавлено: 04 июн 2013, 17:56 

Не в сети
Зам. Админа
Аватара пользователя
Дата регистрации:
02 дек 2010, 12:39
Спасибо: 12460 / 214
Сообщения: 27968


Год выпуска: 2012
Жанр: Боевик, драма, приключения, биография, история
Выпущено: Великобритания, Норвегия, Дания, DCM Productions, Film i Väst, Nordisk Film Production, Recorded Picture Company (RPC), Roenbergfilm

Режиссер: Хоаким Роннинг, Эспен Сандберг

В ролях: Пал Сверре Валхейм Хэйген, Андерс Баасмо Кристиансен, Густаф Скарсгард, Одд Магнус Уильямсон, Тобиас Зантелман, Якоб Офтебро, Агнес Киттелсен, Томас Арнольд, Йорген Бертаге, Элинор Бурк, Мануэль Коши, Сэм Чэпман, Стефан Кронуолл, Катинка Эгрес, Йен Кнауэр, Оле Слетнер, Ричард Триндер

О фильме: Это известная история о том, как норвежский путешественник Тур Хейердал в 1947 году пересёк Тихий океан от Перу до Полинезии на бальсовом плоту. Таким способом он хотел доказать свою теорию о заселении Полинезии из Южной Америки, а не из Азии, как тогда считалось.

Качество: HDRip-AVC
Видео: MPEG4 Video (H264), 2 300 Kbps, 1280x536 25fps
Аудио: Dolby AC3 48000Hz 6ch 384kbps
Продолжительность: 01:49:51
Перевод: Дублированный [лицензия]



General
Unique ID : 279282302657754843900262730567433569333 (0xD21BD0A1638DB8860450F03ACDF3C435)
Format : Matroska
Format version : Version 2
File size : 2.03 GiB
Duration : 1h 49mn
Overall bit rate : 2 659 Kbps

Video
ID : 1
Format : AVC
Format/Info : Advanced Video Codec
Format profile : High@L4.1
Format settings, CABAC : Yes
Format settings, ReFrames : 3 frames
Codec ID : V_MPEG4/ISO/AVC
Duration : 1h 49mn
Bit rate : 2 300 Kbps
Width : 1 280 pixels
Height : 536 pixels
Display aspect ratio : 2.40:1
Frame rate mode : Variable
Frame rate : 25.000 fps
Color space : YUV
Chroma subsampling : 4:2:0
Bit depth : 8 bits
Scan type : Progressive
Bits/(Pixel*Frame) : 0.134
Stream size : 1.70 GiB (84%)
Title : Kon-Tiki 2012 720p BluRay DTS x264-IRONCLUB
Writing library : x264 core 116 r2019M 9cc407d
Encoding settings : cabac=1 / ref=3 / deblock=1:-1:-1 / analyse=0x3:0x133 / me=hex / subme=7 / psy=1 / psy_rd=1.00:0.15 / mixed_ref=1 / me_range=16 / chroma_me=1 / trellis=1 / 8x8dct=1 / cqm=0 / deadzone=21,11 / fast_pskip=1 / chroma_qp_offset=-3 / threads=8 / sliced_threads=0 / nr=0 / decimate=1 / interlaced=0 / bluray_compat=0 / constrained_intra=0 / bframes=3 / b_pyramid=1 / b_adapt=2 / b_bias=0 / direct=3 / weightb=1 / open_gop=0 / weightp=2 / keyint=250 / keyint_min=25 / scenecut=40 / intra_refresh=0 / rc_lookahead=40 / rc=abr / mbtree=1 / bitrate=2300 / ratetol=1.0 / qcomp=0.60 / qpmin=10 / qpmax=51 / qpstep=4 / ip_ratio=1.40 / aq=1:1.00
Language : English
Default : Yes
Forced : No

Audio
ID : 2
Format : AC-3
Format/Info : Audio Coding 3
Mode extension : CM (complete main)
Codec ID : A_AC3
Duration : 1h 49mn
Bit rate mode : Constant
Bit rate : 384 Kbps
Channel(s) : 6 channels
Channel positions : Front: L C R, Side: L R, LFE
Sampling rate : 48.0 KHz
Bit depth : 16 bits
Compression mode : Lossy
Stream size : 300 MiB (14%)
Title : DTS 5.1 @ 1510 kbps - Dub, BD RUS
Language : Russian
Default : Yes
Forced : No



На раздаче до 5 дней с 09:00:00 до 21:30:00 по Москве или до 3 сидов...


























Код:
[imgleft]http://showpic.ru/upload/280412/4f9bd2eaea4a5.png[/imgleft]
[imgleft]http://showpic.ru/upload/280412/4f9bd2ec4f703.png[/imgleft]
[imgleft]http://showpic.ru/upload/280412/4f9bd2ede49bf.png[/imgleft]
[imgleft]http://showpic.ru/upload/280412/4f9bd2ef9b81d.png[/imgleft]
[imgleft]http://showpic.ru/upload/280412/4f9bd2f107b28.png[/imgleft]
[imgleft]http://showpic.ru/upload/280412/4f9bd2f215c5f.png[/imgleft]
[imgleft]http://showpic.ru/upload/290412/4f9d0554bbd13.png[/imgleft]
[imgleft]http://showpic.ru/upload/280412/4f9bd2f320ab3.png[/imgleft]
[imgleft]http://showpic.ru/upload/290412/4f9d0555ea1a7.png[/imgleft]
[imgleft]http://showpic.ru/upload/290412/4f9d0556c380f.png[/imgleft]
[imgleft]http://showpic.ru/upload/290412/4f9d0557ac710.png[/imgleft]
[imgleft]http://showpic.ru/upload/290412/4f9d05592f7ab.png[/imgleft]

[imgleft]http://showpic.ru/upload/290412/4f9d41529fa14.png[/imgleft]
[imgleft]http://showpic.ru/upload/290412/4f9d41532451e.png[/imgleft]
[imgleft]http://showpic.ru/upload/290412/4f9d41539abec.png[/imgleft]
[imgleft]http://showpic.ru/upload/290412/4f9d415423cd6.png[/imgleft]
[imgleft]http://showpic.ru/upload/290412/4f9d4154978fe.png[/imgleft]
[imgleft]http://showpic.ru/upload/290412/4f9d4155172b0.png[/imgleft]
[imgleft]http://showpic.ru/upload/290412/4f9d415586563.png[/imgleft]
[imgleft]http://showpic.ru/upload/290412/4f9d415604463.png[/imgleft]
[imgleft]http://showpic.ru/upload/290412/4f9d415676955.png[/imgleft]
[imgleft]http://showpic.ru/upload/290412/4f9d4156e8e02.png[/imgleft]
[imgleft]http://showpic.ru/upload/290412/4f9d415776511.png[/imgleft]
[imgleft]http://showpic.ru/upload/290412/4f9d4157e91f2.png[/imgleft]




реклама партнёра


Вернуться к началу
 Профиль  
 
   Похожие торренты   Автор   Торрент   Размер 
В этой теме нет новых непрочитанных сообщений. Кон-Тики / Kon-Tiki (Хоаким Роннинг / Joachim Rønning, Эспен Сандберг / Espen Sandberg) [2012г., Норвегия, приключения, биография, история, BDRip] AVO (полная версия)

Alfredovich

199 | 16

2.18 ГБ

В этой теме нет новых непрочитанных сообщений. В сердце моря / In the Heart of the Sea (Рон Ховард) [2015, боевик, триллер, драма, приключения, биография, история, HDRip] Dub

Nickolas3435

18969 | 903

1.46 ГБ

В этой теме нет новых непрочитанных сообщений. В сердце моря / In the Heart of the Sea [боевик, триллер, драма, приключения, биография, история, 2015] HDRip, Dub [iTunes] [КПК]

salma3

329 | 27

577.92 МБ

В этой теме нет новых непрочитанных сообщений. В сердце моря / In the Heart of the Sea (Рон Ховард) [2015, боевик, триллер, драма, приключения, биография, история, HDRip] Dub

Nickolas3435

2703 | 56

2.19 ГБ

В этой теме нет новых непрочитанных сообщений. Распутин [Драма, биография, история, 2013] HDRip [лицензия]

Dracon

49 | 19

1.37 ГБ

В этой теме нет новых непрочитанных сообщений. Пираты Эгейского моря / O Theos agapaei to haviari [Приключения, биография, история, 2012] HDRip, Mvo

salma3

968 | 61

1.37 ГБ

В этой теме нет новых непрочитанных сообщений. Шпионский мост / Bridge of Spies [триллер, драма, биография, история, 2015] HDRip, dub [лицензия]

Dracon

1431 | 77

1.45 ГБ


Начать новую тему Ответить на тему  [ 1 сообщение ] 




Для Мосгорсуда, Роскомнадзора и рекламодателей:: mosgorsud-torrent[собачка]yandex.ru