Торрент файл
скачать торрент магнет ссылка Добавлен: 03 июн 2013, 20:40
Размер: 2 ГБ
Сидеров: 0
Личеров: 3
Автор

СообщениеДобавлено: 03 июн 2013, 20:40 

Не в сети
Зам. Админа
Аватара пользователя
Дата регистрации:
02 дек 2010, 12:39
Спасибо: 12461 / 214
Сообщения: 27968

Год выпуска: 2012
Страна: США
Режиссер: Дерек Сиенфрэнс
Жанр: драма, криминал
Продолжительность: 02:20:13

В ролях: Брэдли Купер, Райан Гослинг, Ева Мендес, Бен Мендельсон, Роуз Бирн, Махершалалхашбаз Али, Дэйн ДеХаан, Эмори Коэн, Рэй Лиотта, Харрис Юлин

Описание: История профессионального мотогонщика, который начинает грабить банки, чтобы содержать новорожденного сына. Однажды на его пути встает полицейский, и столкновение парней перерастает в личную войну.

Качество: HDRip-AVC
Формат: Matroska
Видео: MPEG4 Video (H264) 1280x536 24fps
Аудио: Dolby AC3 48000Hz 6ch 384 Kbps (Профессиональный (полное дублирование) [Лицензия] )
Subtitle: UTF-8 [Russian (Subtitle 1) [Default]]






General
Unique ID : 311124792705199251945729799979735855957 (0xEA107499C3107938049969D643423355)
Format : Matroska
Format version : Version 2
File size : 2.00 GiB
Duration : 2h 20mn
Overall bit rate : 2 038 Kbps

Video
ID : 1
Format : AVC
Format/Info : Advanced Video Codec
Format profile : High@L4.1
Format settings, CABAC : Yes
Format settings, ReFrames : 3 frames
Codec ID : V_MPEG4/ISO/AVC
Duration : 2h 20mn
Bit rate : 1 670 Kbps
Width : 1 280 pixels
Height : 536 pixels
Display aspect ratio : 2.40:1
Frame rate mode : Variable
Frame rate : 24.000 fps
Color space : YUV
Chroma subsampling : 4:2:0
Bit depth : 8 bits
Scan type : Progressive
Bits/(Pixel*Frame) : 0.101
Stream size : 1.58 GiB (79%)
Title : The.Place.Beyond.the.Pines.2012.720p.BluRay.DTS.x264-IRONCLUB
Writing library : x264 core 116 r2019M 9cc407d
Encoding settings : cabac=1 / ref=3 / deblock=1:-1:-1 / analyse=0x3:0x133 / me=hex / subme=7 / psy=1 / psy_rd=1.00:0.15 / mixed_ref=1 / me_range=16 / chroma_me=1 / trellis=1 / 8x8dct=1 / cqm=0 / deadzone=21,11 / fast_pskip=1 / chroma_qp_offset=-3 / threads=8 / sliced_threads=0 / nr=0 / decimate=1 / interlaced=0 / bluray_compat=0 / constrained_intra=0 / bframes=3 / b_pyramid=1 / b_adapt=2 / b_bias=0 / direct=3 / weightb=1 / open_gop=0 / weightp=2 / keyint=240 / keyint_min=24 / scenecut=40 / intra_refresh=0 / rc_lookahead=40 / rc=abr / mbtree=1 / bitrate=1670 / ratetol=1.0 / qcomp=0.60 / qpmin=10 / qpmax=51 / qpstep=4 / ip_ratio=1.40 / aq=1:1.00
Language : English
Default : Yes
Forced : No

Audio
ID : 2
Format : AC-3
Format/Info : Audio Coding 3
Mode extension : CM (complete main)
Codec ID : A_AC3
Duration : 2h 20mn
Bit rate mode : Constant
Bit rate : 384 Kbps
Channel(s) : 6 channels
Channel positions : Front: L C R, Side: L R, LFE
Sampling rate : 48.0 KHz
Bit depth : 16 bits
Compression mode : Lossy
Stream size : 385 MiB (19%)
Title : DTS 5.1 @ 1536 kbps
Language : Russian
Default : Yes
Forced : No

Text
ID : 3
Format : UTF-8
Codec ID : S_TEXT/UTF8
Codec ID/Info : UTF-8 Plain Text
Language : Russian
Default : Yes
Forced : No






реклама партнёра


Вернуться к началу
 Профиль  
 
   Похожие торренты   Автор   Торрент   Размер 
В этой теме нет новых непрочитанных сообщений. Одинокое место для смерти / Похищенная / A Lonely Place to Die [триллер, драма, боевик, криминал, 2011] BDRip, Mvo [Лицензия]

salma3

123 | 6

1.45 ГБ

В этой теме нет новых непрочитанных сообщений. Проклятое место  / Lost Place (Торстен Клайн) [ужасы, триллер, детектив, 2013] HDRip, Mvo

Dracon

2 | 4

1.37 ГБ

В этой теме нет новых непрочитанных сообщений. Место под солнцем / En plats i solen [триллер, драма, криминал, 2012] HDRip, Mvo

salma3

148 | 7

1.37 ГБ

В этой теме нет новых непрочитанных сообщений. Проклятое место / Lost Place [ужасы, триллер, 2013] BDRip 1080p, Mvo

salma3

68 | 11

4.13 ГБ

В этой теме нет новых непрочитанных сообщений. Проклятое место / Lost Place [ужасы, триллер, детектив , 2013] WEBRip, Mvo

salma3

2738 | 188

1.36 ГБ

В этой теме нет новых непрочитанных сообщений. Одинокое место для смерти / A lonely place for dying (Джастин Юджин Эванс / Justin Eugene Evans) [2012г., шпионский триллер, WEB-DL 720p] VO+ sub

Alfredovich

15 | 7

3.58 ГБ

В этой теме нет новых непрочитанных сообщений. Смерть со спецэффектами / Freaky Deaky [триллер, криминал, комедия, 2012] HDRip, Mvo [Лицензия]

Dracon

118 | 4

1.46 ГБ


Начать новую тему Ответить на тему  [ 1 сообщение ] 




Для Мосгорсуда, Роскомнадзора и рекламодателей:: mosgorsud-torrent[собачка]yandex.ru