Торрент файл
скачать торрент магнет ссылка Добавлен: 25 май 2013, 21:46
Размер: 1.46 ГБ
Сидеров: 11
Личеров: 2
Статус: (salma3)
Автор

СообщениеДобавлено: 25 май 2013, 21:46 

Не в сети
Супермодератор
Аватара пользователя
Дата регистрации:
15 фев 2012, 16:44
Возраст: 27
Спасибо: 5139 / 2090
Сообщения: 17432
Год выпуска: 2003
Страна: США, Великобритания
Жанр: комедия, мелодрама
Продолжительность: 01:40:56.680 (151417 frames)
Перевод: Профессиональный (многоголосый, закадровый)
Русские субтитры: нет

Режиссер: Крэйг Фергюсон / Craig Ferguson

В ролях: Крэйг Фергюсон, Шарлотта Черч, Джемма Рэдгрейв, Стефен Нунан, Ральф Браун, Иэн МакНис, Имелда Стонтон, Энтони Хэд, Джосс Экленд, Джозеф Алесси

Описание: Пол — рок-звезда. Он живет в одиночестве, накачивая себя спиртным и гоняя по дому на «Харлее». Однажды, напившись до безумия, Пол вылетел из окна и попал в больницу. Но не случись эта беда, Пол так бы и не узнал, что у него есть дочь — плод любовного приключения с Ребеккой, одной из его многочисленных поклонниц. В те времена Пол находился на пике славы. Его жизнь была нескончаемой чередой концертов, записей, вечеринок, золотых дисков… Пол решает увидеть дочь и приезжает к Ребекке. Оливии исполнилось 16, она поет и у нее просто ангельский голос. Правда она не имеет ни малейшего понятия о том, кто ее отец. И вот теперь Полу и Оливии предстоит познакомиться друг с другом…

Качество: DVDRip
Формат: AVI
Видео кодек: XviD
Аудио кодек: AC3
Видео: 720x544 (1.32:1), 25 fps, XviD build 50 ~1609 kbps avg, 0.16 bit/pixel
Аудио: 48 kHz, AC3 Dolby Digital, 3/2 (L,C,R,l,r) + LFE ch, ~448.00 kbps avg
General
Complete name : D:\001 МОИ РАЗДАЧИЯ буду рядом 1,46ya_budu_ryadom_1.46_[torrents.ru]_by_bm11.avi
Format : AVI
Format/Info : Audio Video Interleave
File size : 1.46 GiB
Duration : 1h 40mn
Overall bit rate : 2 068 Kbps
Writing application : VirtualDubMod 1.5.10.2 (build 2540/release)
Writing library : VirtualDubMod build 2540/release
Video
Format : MPEG-4 Visual
Format profile : Streaming Video@L1
Format settings, BVOP : Yes
Format settings, QPel : No
Format settings, GMC : No warppoints
Format settings, Matrix : Custom
Codec ID : XVID
Codec ID/Hint : XviD
Duration : 1h 40mn
Bit rate : 1 610 Kbps
Width : 720 pixels
Height : 544 pixels
Display aspect ratio : 4/3
Frame rate : 25.000 fps
Resolution : 24 bits
Colorimetry : 4:2:0
Scan type : Progressive
Bits/(Pixel*Frame) : 0.164
Stream size : 1.14 GiB (78%)
Writing library : XviD 50
Audio
Format : AC-3
Format/Info : Audio Coding 3
Codec ID : 2000
Duration : 1h 40mn
Bit rate mode : Constant
Bit rate : 448 Kbps
Channel(s) : 6 channels
Channel positions : Front: L C R, Surround: L R, LFE
Sampling rate : 48.0 KHz
Stream size : 323 MiB (22%)
Alignment : Split accross interleaves
Interleave, duration : 40 ms (1.00 video frame)
Interleave, preload duration : 500 ms




реклама партнёра


Вернуться к началу
 Профиль Отправить личное сообщение  
 
   Похожие торренты   Автор   Торрент   Размер 
В этой теме нет новых непрочитанных сообщений. Я буду рядом [Мелодрама, 2014] SATRip

Dracon

104 | 11

1.37 ГБ

В этой теме нет новых непрочитанных сообщений. Я рядом [01-04 из 04] (Владимир Янощук) [2013, Мелодрама, HDTVRip 720p]

Nickolas3435

46 | 4

4.6 ГБ

В этой теме нет новых непрочитанных сообщений. Воздержаться от мужчин / Manfast [мелодрама, комедия, 2003] DVDRip, Mvo

salma3

177 | 20

1.34 ГБ

В этой теме нет новых непрочитанных сообщений. Страна любви / The Republic of Love [мелодрама, комедия, 2003] DVDRip, Mvo

salma3

30 | 4

1.37 ГБ

В этой теме нет новых непрочитанных сообщений. Имбирь и корица / Dillo con parole mie [Мелодрама, комедия, 2003] DVDRip, Dvo

salma3

21 | 3

1.45 ГБ

В этой теме нет новых непрочитанных сообщений. Семейные ценности / It Runs in the Family [Драма, мелодрама, комедия, 2003] DVDRip, Mvo

salma3

144 | 24

1.37 ГБ

В этой теме нет новых непрочитанных сообщений. Обучение лжи / Научиться лгать / Liegen lernen [драма, мелодрама, комедия, 2003] DVDRip, Dvo

salma3

18 | 2

1.46 ГБ


Начать новую тему Ответить на тему  [ 1 сообщение ] 




Для Мосгорсуда, Роскомнадзора и рекламодателей:: mosgorsud-torrent[собачка]yandex.ru