Торрент файл
скачать торрент магнет ссылка Добавлен: 24 май 2013, 10:25
Размер: 1.46 ГБ
Сидеров: 1
Личеров: 2
Автор

СообщениеДобавлено: 24 май 2013, 10:25 

Не в сети
Зам. Админа
Аватара пользователя
Дата регистрации:
02 дек 2010, 12:39
Спасибо: 12461 / 214
Сообщения: 27968
Страна: Франция, Германия, Бельгия
Производство: Alvy Productions, BNP Paribas Fortis Film Fund, In Production
Жанр: комедия
Год выпуска: 2012
Продолжительность: 01:31:40

Перевод: Профессиональный (многоголосый закадровый)
Оригинальная аудиодорожка: нет
Cубтитры: нет

Режиссер: Жюли Дельпи / Julie Delpy

В ролях:
Крис Рок, Жюли Дельпи, Альберт Дельпи, Алексия Ландо, Александр Наон, Кейт Бёртон, Дилан Бейкер, Даниэль Брюль, Тален Рут Райли, Оуэн Шипман...

Описание:
Марион, теперь счастливо живущая с Мингусом в их нью-йоркской квартире, нашла все, что ей было так необходимо, отношения, свой дом, успешную карьеру и себя саму в опасности, когда ее отец, сестра и экс-бойфренд решили к ним заглянуть из Франции…





Исходник: DVD9 R5
Тип релиза: DVDRip
Контейнер: AVI
Видео: 720x384 (1,875:1), 25 fps, XviD ~ 1817 kbps avg, 0.263 bit/pixel
Аудио: 48 kHz, Dolby AC3 5.1, 448 kbps

Раздача от:
Общее
Полное имя : 2.dnja.v.N'ju-Jorke.2012.DVDRip_[Youtracker]_by_AVP Studio.avi
Формат : AVI
Формат/Информация : Audio Video Interleave
Размер файла : 1,46 Гбайт
Продолжительность : 1 ч. 31 м.
Общий поток : 2275 Кбит/сек
Программа кодирования : VirtualDubModRus 1.5.10.2 (build 2542/release)
Библиотека кодирования : VirtualDubMod build 2542/release

Видео
Идентификатор : 0
Формат : MPEG-4 Visual
Профиль формата : Advanced Simple@L5
Параметр BVOP формата : 1
Параметр QPel формата : Нет
Параметр GMC формата : Без точки перехода
Параметр матрицы формата : Выборочная
Идентификатор кодека : XVID
Идентификатор кодека/Подсказка : XviD
Продолжительность : 1 ч. 31 м.
Битрейт : 1817 Кбит/сек
Ширина : 720 пикселей
Высота : 384 пикселя
Соотношение сторон : 1,875
Частота кадров : 25,000 кадров/сек
Цветовое пространство : YUV
Субдискретизация насыщенности : 4:2:0
Битовая глубина : 8 бит
Тип развёртки : Прогрессивная
Метод сжатия : С потерями
Бит/(Пиксели*Кадры) : 0.263
Размер потока : 1,16 Гбайт (80%)
Библиотека кодирования : XviD 65

Аудио
Идентификатор : 1
Формат : AC-3
Формат/Информация : Audio Coding 3
Расширение режима : CM (complete main)
Идентификатор кодека : 2000
Продолжительность : 1 ч. 31 м.
Вид битрейта : Постоянный
Битрейт : 448 Кбит/сек
Каналы : 6 каналов
Расположение каналов : Front: L C R, Side: L R, LFE
Частота : 48,0 КГц
Битовая глубина : 16 бит
Метод сжатия : С потерями
Размер потока : 294 Мбайт (20%)
Выравнивание : Разделение по промежуткам
Продолжительность промежутка : 40 мс. (1,00 видеокадр)
Время предзагрузки промежутка : 500 мс






реклама партнёра


Вернуться к началу
 Профиль  
 
   Похожие торренты   Автор   Торрент   Размер 
В этой теме нет новых непрочитанных сообщений. Жандарм в Нью-Йорке / Le gendarme а New York [комедия, 1965] HDTVRip-AVC, Mvo

salma3

8 | 3

1.74 ГБ

В этой теме нет новых непрочитанных сообщений. Пять минаретов в Нью-Йорке / Five Minarets in New York [драма, 2010] BDRip, Mvo

salma3

26 | 4

1.46 ГБ

В этой теме нет новых непрочитанных сообщений. Салам, New York / Salam, New York! [Комедия, драма, мелодрама, 2013] WEB-DLRip

Dracon

102 | 5

1.46 ГБ

В этой теме нет новых непрочитанных сообщений. Салам, New York! / Salam, New York! (Руслан Акун) [2013, комедия, драма, мелодрама, WEB-DLRip]

Nickolas3435

455 | 23

2.04 ГБ

В этой теме нет новых непрочитанных сообщений. Мгновения Нью-Йорка / New York Minute [комедия, 2004] DVDRip-AVC, Dub

salma3

12 | 4

1.46 ГБ

В этой теме нет новых непрочитанных сообщений. Гарри и Уолтер едут в Нью-Йорк / Harry and Walter Go to New York [комедия, криминал, 1976] DVDRip, Mvo

salma3

215 | 43

1.47 ГБ

В этой теме нет новых непрочитанных сообщений. 28 дней / 28 Days [драма, комедия, 2000] DVDRip, Mvo

salma3

224 | 15

1.46 ГБ


Начать новую тему Ответить на тему  [ 1 сообщение ] 




Для Мосгорсуда, Роскомнадзора и рекламодателей:: mosgorsud-torrent[собачка]yandex.ru