Торрент файл
скачать торрент магнет ссылка Добавлен: 22 май 2013, 11:24
Размер: 1.45 ГБ
Сидеров: 149
Личеров: 7
Автор

СообщениеДобавлено: 22 май 2013, 11:24 

Не в сети
Супермодератор
Аватара пользователя
Дата регистрации:
15 фев 2012, 16:44
Возраст: 28
Спасибо: 6593 / 2145
Сообщения: 44246

Граница / Frontiere(s)

Производство: Франция, Швейцария
Год выпуска: 2007 г.
Жанр: ужасы, триллер, драма, криминал
Продолжительность: 01:48:33
Мировая премьера: 1 июля 2007
Российская премьера: 21 февраля 2008, «Lizard Cinema»
Дата выхода DVD: 1 марта 2011, «Lizard Cinema Trade»

Перевод: Профессиональный (полное дублирование)

Режиссер: Ксавье Жанс / Xavier Gens



В ролях: Карина Теста, Самюэль Ле Бьян, Эстель Лефебюр, Орельен Вик, Дэвид Саракино, Чемс Дамани, Мод Форже, Амели Доре

Описание:
Преступная банда после ряда дерзких ограблений скрывается от правосудия в близлежащих лесах. Скитаясь в поисках временно прибежища, они выходят к мотелю. Хозяева спасительного пристанища не отличаются гостеприимством. Но даже самые страшные фантазии не в состоянии сравниться с ожидающей несчастных реальностью. Совсем скоро неудавшиеся бандиты поймут, что стали пленниками каннибалов, которые уготовили своим постояльцам ужасную смерть…


Качество видео: HDRip-AVC
Контейнер: MKV
Видео: 1056 x 448 (2,35:1), 23,976 fps, AVC (х264) High@L4.1, ~ 1467 Kbps, 0.129 bit/pixel
Аудио: 48 kHz, AC3 Dolby Digital, 3/2 (L,C,R,l,r) + LFE ch, ~448.00 kbps avg
Cубтитры: отсутствуют

Формат : Matroska
Версия формата : Version 2
Размер файла : 1,45 Гбайт
Продолжительность : 1 ч. 48 м.
Общий поток : 1916 Кбит/сек
Дата кодирования : UTC 2013-05-21 11:48:58
Программа кодирования : mkvmerge v6.2.0 ('Promised Land') built on Apr 28 2013 12:22:01
Библиотека кодирования : libebml v1.3.0 + libmatroska v1.4.0

Видео
Идентификатор : 1
Формат : AVC
Формат/Информация : Advanced Video Codec
Профиль формата : High@L4.1
Параметр CABAC формата : Да
Параметр ReFrames формата : 5 кадров
Идентификатор кодека : V_MPEG4/ISO/AVC
Продолжительность : 1 ч. 48 м.
Битрейт : 1467 Кбит/сек
Ширина : 1056 пикселей
Высота : 448 пикселей
Соотношение сторон : 2,35:1
Режим частоты кадров : Постоянный
Частота кадров : 23,976 кадра/сек
Цветовое пространство : YUV
Субдискретизация насыщенности : 4:2:0
Битовая глубина : 8 бит
Тип развёртки : Прогрессивная
Бит/(Пиксели*Кадры) : 0.129
Размер потока : 1,08 Гбайт (75%)
Библиотека кодирования : x264 core 132 r2310 76a5c3a
Настройки программы : cabac=1 / ref=5 / deblock=1:2:2 / analyse=0x3:0x113 / me=umh / subme=9 / psy=1 / psy_rd=1.00:0.00 / mixed_ref=1 / me_range=16 / chroma_me=1 / trellis=1 / 8x8dct=1 / cqm=0 / deadzone=21,11 / fast_pskip=1 / chroma_qp_offset=-2 / threads=3 / lookahead_threads=1 / sliced_threads=0 / nr=0 / decimate=1 / interlaced=0 / bluray_compat=0 / constrained_intra=0 / bframes=3 / b_pyramid=2 / b_adapt=2 / b_bias=0 / direct=3 / weightb=1 / open_gop=0 / weightp=2 / keyint=240 / keyint_min=23 / scenecut=40 / intra_refresh=0 / rc_lookahead=50 / rc=2pass / mbtree=1 / bitrate=1467 / ratetol=1.0 / qcomp=0.60 / qpmin=8 / qpmax=69 / qpstep=4 / cplxblur=20.0 / qblur=0.5 / vbv_maxrate=62500 / vbv_bufsize=78125 / nal_hrd=none / ip_ratio=1.40 / aq=1:1.00
Default : Да
Forced : Нет

Аудио
Идентификатор : 2
Формат : AC-3
Формат/Информация : Audio Coding 3
Расширение режима : CM (complete main)
Параметр Endianness формата : Big
Идентификатор кодека : A_AC3
Продолжительность : 1 ч. 48 м.
Вид битрейта : Постоянный
Битрейт : 448 Кбит/сек
Каналы : 6 каналов
Расположение каналов : Front: L C R, Side: L R, LFE
Частота : 48,0 КГц
Битовая глубина : 16 бит
Метод сжатия : С потерями
Размер потока : 347 Мбайт (23%)
Язык : Russian
Default : Да
Forced : Нет




реклама партнёра


Вернуться к началу
 Профиль Отправить личное сообщение  
 
   Похожие торренты   Автор   Торрент   Размер 
В этой теме нет новых непрочитанных сообщений. Граница / The Frontier [Триллер, драма, криминал, 2015] HDRip, Mvo

salma3

385 | 94

1.37 ГБ

В этой теме нет новых непрочитанных сообщений. Девушка напротив / The Girl Next Door [ужасы, триллер, драма, криминал, 2007] HDRip-AVC, Dvo

salma3

39 | 12

741.07 МБ

В этой теме нет новых непрочитанных сообщений. Граница / The Border [Драма, криминал, 1982] BDRip, Dvo

salma3

22 | 3

1.45 ГБ

В этой теме нет новых непрочитанных сообщений. Граница / The Border [Драма, криминал, 1982] BDRip 720p, Dvo

salma3

51 | 21

4.36 ГБ

В этой теме нет новых непрочитанных сообщений. Перелом / Fracture [триллер, драма, криминал, 2007] HDRip, Dub

salma3

85 | 8

1.46 ГБ

В этой теме нет новых непрочитанных сообщений. Протеже / Moon to [триллер, драма, криминал, 2007] HDRip, Dvo

salma3

99 | 14

1.46 ГБ

В этой теме нет новых непрочитанных сообщений. Отважная / The Brave One [триллер, драма, криминал, 2007] HDRip, Dub

salma3

62 | 13

1.45 ГБ


Начать новую тему Ответить на тему  [ 1 сообщение ] 




Для Мосгорсуда, Роскомнадзора и рекламодателей:: mosgorsud-torrent[собачка]yandex.ru