Торрент файл
скачать торрент магнет ссылка Добавлен: 17 май 2013, 23:27
Размер: 751.15 МБ
Сидеров: 2
Личеров: 7
Статус: (salma3)
Автор

СообщениеДобавлено: 17 май 2013, 23:27 

Не в сети
Супермодератор
Аватара пользователя
Дата регистрации:
15 фев 2012, 16:44
Возраст: 27
Спасибо: 5121 / 2089
Сообщения: 17274

Год выпуска: 1986
Страна: США
Киностудия: Universal Pictures , Lucasfilm
Жанр:Фантастика
Продолжительность: 01:45:57
Перевод: Профессиональный (многоголосый закадровый)
Русские субтитры: нет

Режиссер: Уиллард Хайк / Willard Huyck

В ролях: Лиа Томпсон, Джеффри Джонс, Тим Роббинс, Эд Гэйл, Чип Цин, Тимоти М. Роуз, Стив Слип, Питер Бейрд, Мэри Уэллс, Лиза Старз

Описание: Появление Говарда на Земле стало следствием эксперимента, проведенного земными учеными. Говарда «выдернул» из привычного мира луч лазера, направленный учеными на его планету. На Земле Говард открывает для себя множество приятных вещей.
Он пьет пиво, всегда ходит с сигарой, зажатой в клюве, он знакомится с рокерами, подругой Говарда становится юная солистка рок-группы Беверли Швицлер. Но однажды через лазерный луч на Землю проникает очень неприятное инопланетное существо. Появление второго пришельца портит жизнь Говарду. В конце концов у него возникает желание вернуться обратно на свою утиную планету…


Качество: DVDRip
Формат: AVI
Видео кодек: XviD
Аудио кодек: MP3
Видео: 656x352 (1.86:1), 25 fps, XviD build 73 ~853 kbps avg, 0.15 bit/pixel
Аудио: 48 kHz, MPEG Layer 3, 2 ch, ~128.00 kbps avg

Сэмпл
D:Говард-утка DVDRip. 745 [YTN] by dexter lex.avi
General
Complete name : D:Говард-утка DVDRip. 745 [YTN] by dexter lex.avi
Format : AVI
Format/Info : Audio Video Interleave
File size : 751 MiB
Duration : 1h 45mn
Overall bit rate : 991 Kbps
Writing application : VirtualDubMod 1.5.10.3 | http://www.virtualdub-fr.org || (build 2550/release)
Writing library : VirtualDubMod build 2550/release
Video #0
ID : 0
Format : MPEG-4 Visual
Format profile : Advanced Simple@L5
Format settings, BVOP : 1
Format settings, QPel : No
Format settings, GMC : No warppoints
Format settings, Matrix : Custom
Codec ID : XVID
Codec ID/Hint : XviD
Duration : 1h 45mn
Bit rate : 853 Kbps
Width : 656 pixels
Height : 352 pixels
Display aspect ratio : 1.85:1
Frame rate : 25.000 fps
Color space : YUV
Chroma subsampling : 4:2:0
Bit depth : 8 bits
Scan type : Progressive
Compression mode : Lossy
Bits/(Pixel*Frame) : 0.148
Stream size : 647 MiB (86%)
Writing library : XviD 73
Audio #1
ID : 1
Format : MPEG Audio
Format version : Version 1
Format profile : Layer 3
Codec ID : 55
Codec ID/Hint : MP3
Duration : 1h 45mn
Bit rate mode : Constant
Bit rate : 128 Kbps
Channel(s) : 2 channels
Sampling rate : 48.0 KHz
Compression mode : Lossy
Stream size : 97.0 MiB (13%)
Alignment : Aligned on interleaves
Interleave, duration : 40 ms (1.00 video frame)
Interleave, preload duration : 504 ms
Writing library : LAME3.99r
Encoding settings : -m s -V 4 -q 2 -lowpass 17 -b 128


Раздача от:




реклама партнёра


Вернуться к началу
 Профиль Отправить личное сообщение  
 
   Похожие торренты   Автор   Торрент   Размер 
В этой теме нет новых непрочитанных сообщений. Стальные руки / Vendetta dal futuro [Фантастика, боевик, 1986] DVDRip, Dvo [НТВ+]

salma3

20 | 3

1.45 ГБ

В этой теме нет новых непрочитанных сообщений. Стальные руки / Vendetta dal futuro [фантастика, боевик, 1986] DVDRip, Dvo [НТВ+]

salma3

31 | 2

1.37 ГБ

В этой теме нет новых непрочитанных сообщений. Стальные руки / Vendetta dal futuro [Фантастика, боевик, 1986] DVDRip-AVC, Dvo+Avo

salma3

70 | 5

2.88 ГБ

В этой теме нет новых непрочитанных сообщений. Тюремный корабль / Prison Ship [фантастика, боевик, комедия, 1986] DVDRip, Avo

salma3

33 | 9

1.48 ГБ

В этой теме нет новых непрочитанных сообщений. Опасная территория / Choke Canyon [боевик, фантастика, приключения, 1986] DVDRip, Mvo [ВГТРК]

salma3

130 | 21

1.45 ГБ

В этой теме нет новых непрочитанных сообщений. Смертельный друг / Deadly Friend [ужасы, фантастика, драма, детектив, 1986] DVDRip, Mvo

salma3

0 | 3

1.37 ГБ

В этой теме нет новых непрочитанных сообщений. Альф / Alf / 1-4 сезоны 1-102 серии из 102 [фантастика, драма, комедия, семейный, 1986-1990] DVDRip, Dub [Домашний]

salma3

59 | 14

18.73 ГБ


Начать новую тему Ответить на тему  [ 1 сообщение ] 




Для Мосгорсуда, Роскомнадзора и рекламодателей:: mosgorsud-torrent[собачка]yandex.ru