Торрент файл
скачать торрент магнет ссылка Добавлен: 16 май 2013, 20:41
Размер: 1.46 ГБ
Сидеров: 124
Личеров: 7
Статус: (salma3)
Автор

СообщениеДобавлено: 16 май 2013, 20:41 

Не в сети
Зам. Админа
Аватара пользователя
Дата регистрации:
02 дек 2010, 12:39
Спасибо: 12611 / 214
Сообщения: 28049
«Наконец-то»


Страна: США
Жанр:комедия
Год выпуска: 2013
Продолжительность: 01:33:06
Перевод: Профессиональный (дублированный)
Cубтитры: нет

Режиссер: Джон Лукас / Jon Lucas, Скотт Мур / Scott Moore

В ролях: Скайлар Эстин, Сара Райт, Майлз Теллер, Джонатан Кельтц, Джастин Чон, Сара Райт, Джонатан Кельтц, Франсуа Чау, Расселл Ходжкинсон, Дэниэл Буко, Расселл Меркадо, Джози Лор...

Роли дублировали: Сергей Смирнов, Александр Дасевич, Даниил Эльдаров

Описание: Двое друзей подбивают третьего отметить его 21-ый день рождения прямо накануне важного экзамена в медицинский колледж. Никто не замечает, как одна кружка пива превращается в море выпивки, а вечеринка — в бурное и незабываемое приключение с музыкой и девчонками. И где же они окажутся утром?


Качество: BDRip (Blu-ray 1080p)
Формат: AVI

Видео: 720x400 (16:9), 23.976 fps, XviD ~ 1783 kbps avg, 0.258 bit/pixel
Аудио: 48 kHz, AC3 6 ch, 448 kbps, русский

Раздача от:

Общее
Полное имя: 21.i.bolshe.2013.D.BDRip_[Youtracker]_by_avproh.avi
Формат: AVI
Формат/Информация: Audio Video Interleave
Размер файла: 1,46 Гбайт
Продолжительность: 1 ч. 33 м.
Общий поток: 2241 Кбит/сек
Программа кодирования: VirtualDubModRus 1.5.10.2 (build 2542/release)
Библиотека кодирования: VirtualDubMod build 2542/release

Видео
Идентификатор: 0
Формат: MPEG-4 Visual
Профиль формата: Advanced Simple@L5
Параметр BVOP формата: 1
Параметр QPel формата: Нет
Параметр GMC формата: Без точки перехода
Параметр матрицы формата: Выборочная
Идентификатор кодека: XVID
Идентификатор кодека/Подсказка: XviD
Продолжительность: 1 ч. 33 м.
Битрейт: 1783 Кбит/сек
Ширина: 720 пикселей
Высота: 400 пикселей
Соотношение сторон: 16:9
Частота кадров: 23,976 кадра/сек
Цветовое пространство: YUV
Субдискретизация насыщенности: 4:2:0
Битовая глубина: 8 бит
Тип развёртки: Прогрессивная
Метод сжатия: С потерями
Бит/(Пиксели*Кадры): 0.258
Размер потока: 1,16 Гбайт (80%)
Библиотека кодирования: XviD 65

Аудио
Идентификатор: 1
Формат: AC-3
Формат/Информация: Audio Coding 3
Расширение режима: CM (complete main)
Параметр Endianness формата: Big
Идентификатор кодека: 2000
Продолжительность: 1 ч. 33 м.
Вид битрейта: Постоянный
Битрейт: 448 Кбит/сек
Каналы: 6 каналов
Расположение каналов: Front: L C R, Side: L R, LFE
Частота: 48,0 КГц
Битовая глубина: 16 бит
Метод сжатия: С потерями
Размер потока: 298 Мбайт (20%)
Выравнивание: Разделение по промежуткам
Продолжительность промежутка: 42мс. (1,00 видеокадр)
Время предзагрузки промежутка: 500мс.







реклама партнёра


Вернуться к началу
 Профиль  
 
   Похожие торренты   Автор   Торрент   Размер 
В этой теме нет новых непрочитанных сообщений. Невероятные приключения кота / Oggy et les cafards [комедия, 2013] BDRip [Лицензия]

salma3

148 | 9

1.45 ГБ

В этой теме нет новых непрочитанных сообщений. Укради мою жену / Life of Crime [комедия, криминал, 2013] BDRip-AVC, Dub [Лицензия]

Dracon

354 | 37

2.18 ГБ

В этой теме нет новых непрочитанных сообщений. Любовь в квадрате / Des gens qui s'embrassent [драма, комедия, 2013] BDRip, Mvo [Лицензия]

Dracon

282 | 12

1.46 ГБ

В этой теме нет новых непрочитанных сообщений. Очень страшное кино 5 / Scary Movie 5 [комедия, 2013] BDRip, Dub [Лицензия]

salma3

102 | 13

1.45 ГБ

В этой теме нет новых непрочитанных сообщений. Зачётный препод / Fack ju Gohte [комедия, 2013] BDRip 720p, Dub [Лицензия]

Dracon

33 | 4

7.99 ГБ

В этой теме нет новых непрочитанных сообщений. Любовь в квадрате / Des gens qui s'embrassent [драма, комедия, 2013] BDRip 1080p, Mvo [Лицензия]

Dracon

58 | 4

7.38 ГБ

В этой теме нет новых непрочитанных сообщений. Любовь в квадрате / Des gens qui s'embrassent [драма, комедия, 2013] BDRip 720p, Mvo [Лицензия]

Dracon

54 | 3

3.78 ГБ


Начать новую тему Ответить на тему  [ 1 сообщение ] 




Для Мосгорсуда, Роскомнадзора и рекламодателей:: mosgorsud-torrent[собачка]yandex.ru