Торрент файл
скачать торрент магнет ссылка Добавлен: 16 май 2013, 10:45
Размер: 2.19 ГБ
Сидеров: 119
Личеров: 5
Автор

СообщениеДобавлено: 16 май 2013, 10:45 

Не в сети
Зам. Админа
Аватара пользователя
Дата регистрации:
02 дек 2010, 12:39
Спасибо: 12623 / 214
Сообщения: 28012

Год выпуска: 2013
Производство: Испания, Канада / De Milo, Toma 78
Жанр:Ужасы, фэнтези, триллер
Продолжительность: 01:40:06
Перевод: Профессиональный (полное дублирование) чистый звук
Субтитры: Английские, русские


Режиссер: Андрес Мускетти

В ролях: Джессика Честейн, Николай Костер-Вальдау, Меган Чарпентье, Изабель Нелисс, Дэниэл Кэш, Хавьер Боте, Джейн Моффат, Морган МакГарри, Дэвид Фокс, Доминик Куццокреа

О фильме: В заброшенной хижине в чаще леса найдены две девочки. Таинственным образом они прожили в пустом доме пять лет. Найденных сирот забирают единственные родственники, молодая супружеская пара. Но девочки не одиноки, у них есть мама, и она приходит из тьмы…


Бюджет: $15 000 000





Качество: BDRip 720p [Mama 2013 1080p BluRay AVC DTS-HD MA 5.1-PublicHD]
Формат: MKV
Видео: H.264, 1280x694 (1,85:1), 23,976 fps, 2230 Кbps, 0.105 bit/pixel
Аудио#1: 48 kHz, AC3 Dolby Digital, 3/2 (L,C,R,l,r) + LFE ch, ~448.00 kbps avg | RUS
Аудио#2: 48 kHz, AC3 Dolby Digital, 3/2 (L,C,R,l,r) + LFE ch, ~448.00 kbps avg | ENG


Автор рипа:



Общее
Уникальный идентификатор: 249914452352878914903757480032565979499 (0xBC03C5D1C644D44C9381F8D60087E96B)
Полное имя: Mama.2013.D.BDRip.x264.potroks.mkv
Формат: Matroska
Версия формата: Version 4 / Version 2
Размер файла: 2,19 Гбайт
Продолжительность: 1 ч. 40 м.
Общий поток: 3127 Кбит/сек
Название фильма: -=POTROKS=-
Дата кодирования: UTC 2013-05-16 04:54:23
Программа кодирования: mkvmerge v5.9.0 ('On The Loose') built on Dec 15 2012 16:39:58
Библиотека кодирования: libebml v1.3.0 + libmatroska v1.4.0

Видео
Идентификатор: 1
Формат: AVC
Формат/Информация: Advanced Video Codec
Профиль формата: High@L4.1
Параметр CABAC формата: Да
Параметр ReFrames формата: 8 кадров
Идентификатор кодека: V_MPEG4/ISO/AVC
Продолжительность: 1 ч. 40 м.
Битрейт: 2230 Кбит/сек
Ширина: 1280 пикселей
Высота: 694 пикселя
Соотношение сторон: 1,85:1
Режим частоты кадров: Постоянный
Частота кадров: 23,976 кадра/сек
Цветовое пространство: YUV
Субдискретизация насыщенности: 4:2:0
Битовая глубина: 8 бит
Тип развёртки: Прогрессивная
Бит/(Пиксели*Кадры): 0.105
Размер потока: 1,52 Гбайт (69%)
Библиотека кодирования: x264 core 125 r2208 d9d2288
Настройки программы: cabac=1 / ref=8 / deblock=1:-2:-2 / analyse=0x3:0x133 / me=umh / subme=11 / psy=1 / psy_rd=1.04:0.01 / mixed_ref=1 / me_range=32 / chroma_me=1 / trellis=2 / 8x8dct=1 / cqm=0 / deadzone=21,11 / fast_pskip=0 / chroma_qp_offset=-3 / threads=9 / lookahead_threads=1 / sliced_threads=0 / nr=0 / decimate=1 / interlaced=0 / bluray_compat=0 / constrained_intra=0 / bframes=8 / b_pyramid=2 / b_adapt=2 / b_bias=0 / direct=3 / weightb=1 / open_gop=0 / weightp=2 / keyint=240 / keyint_min=23 / scenecut=40 / intra_refresh=0 / rc_lookahead=100 / rc=2pass / mbtree=1 / bitrate=2230 / ratetol=1.0 / qcomp=0.70 / qpmin=0 / qpmax=69 / qpstep=4 / cplxblur=20.0 / qblur=0.5 / vbv_maxrate=20000 / vbv_bufsize=25000 / nal_hrd=none / ip_ratio=1.35 / aq=1:0.80
Язык: English
Default: Да
Forced: Нет

Аудио #1
Идентификатор: 2
Формат: AC-3
Формат/Информация: Audio Coding 3
Расширение режима: CM (complete main)
Параметр Endianness формата: Big
Идентификатор кодека: A_AC3
Продолжительность: 1 ч. 40 м.
Вид битрейта: Постоянный
Битрейт: 448 Кбит/сек
Каналы: 6 каналов
Расположение каналов: Front: L C R, Side: L R, LFE
Частота: 48,0 КГц
Битовая глубина: 16 бит
Метод сжатия: С потерями
Размер потока: 321 Мбайт (14%)
Заголовок: чистый звук
Язык: Russian
Default: Да
Forced: Да

Аудио #2
Идентификатор: 3
Формат: AC-3
Формат/Информация: Audio Coding 3
Расширение режима: CM (complete main)
Параметр Endianness формата: Big
Идентификатор кодека: A_AC3
Продолжительность: 1 ч. 40 м.
Вид битрейта: Постоянный
Битрейт: 448 Кбит/сек
Каналы: 6 каналов
Расположение каналов: Front: L C R, Side: L R, LFE
Частота: 48,0 КГц
Битовая глубина: 16 бит
Метод сжатия: С потерями
Размер потока: 321 Мбайт (14%)
Заголовок: Original | DD 5.1 @ 448 kbps
Язык: English
Default: Нет
Forced: Нет

Текст #1
Идентификатор: 4
Формат: UTF-8
Идентификатор кодека: S_TEXT/UTF8
Идентификатор кодека/Информация: UTF-8 Plain Text
Язык: English
Default: Нет
Forced: Нет

Текст #2
Идентификатор: 5
Формат: UTF-8
Идентификатор кодека: S_TEXT/UTF8
Идентификатор кодека/Информация: UTF-8 Plain Text
Язык: Russian
Default: Нет
Forced: Нет
avs [info]: 1280x694p 1:1 @ 2500000/104271 fps (cfr)
x264 [info]: using SAR=1/1
x264 [info]: using cpu capabilities: MMX2 SSE2Fast SSSE3 FastShuffle SSE4.2 AVX XOP FMA4 SSEMisalign LZCNT
x264 [info]: profile High, level 4.1

x264 [info]: frame I:1131Avg QP:17.34size: 78296
x264 [info]: frame P:28899 Avg QP:19.32size: 26009
x264 [info]: frame B:113977 Avg QP:21.83size:7313
x264 [info]: consecutive B-frames:1.6%1.6%6.7% 11.6% 17.1% 50.9%6.6%1.5%2.3%
x264 [info]: mb II16..4: 19.5% 62.3% 18.2%
x264 [info]: mb PI16..4:0.7%5.0%0.7%P16..4: 32.8% 35.4% 10.5%1.6%0.2%skip:13.2%
x264 [info]: mb BI16..4:0.1%0.5%0.1%B16..8: 35.3% 13.2%1.4%direct: 2.6%skip:46.8%L0:43.2% L1:49.2% BI: 7.6%
x264 [info]: 8x8 transform intra:74.2% inter:66.2%
x264 [info]: direct mvsspatial:97.3% temporal:2.7%
x264 [info]: coded y,uvDC,uvAC intra: 78.4% 69.7% 42.0% inter: 12.0% 10.1% 1.5%
x264 [info]: i16 v,h,dc,p: 29% 18%4% 49%
x264 [info]: i8 v,h,dc,ddl,ddr,vr,hd,vl,hu: 11%6%5% 10% 15% 14% 14% 12% 12%
x264 [info]: i4 v,h,dc,ddl,ddr,vr,hd,vl,hu: 12%7%8% 11% 15% 13% 13% 10% 11%
x264 [info]: i8c dc,h,v,p: 36% 28% 20% 16%
x264 [info]: Weighted P-Frames: Y:5.5% UV:2.7%
x264 [info]: ref P L0: 51.8%8.4% 18.3%6.7%5.3%3.9%3.2%1.9%0.4%0.0%
x264 [info]: ref B L0: 75.9% 12.0%6.0%2.7%1.9%1.1%0.4%
x264 [info]: ref B L1: 91.4%8.6%
x264 [info]: kb/s:2229.21

x264 [total]: encoded 144007 frames, 5.48 fps, 2229.21 kb/s







реклама партнёра


Вернуться к началу
 Профиль  
 
   Похожие торренты   Автор   Торрент   Размер 
В этой теме нет новых непрочитанных сообщений. Черная мама, белая мама / Black Mama White Mama [боевик, криминал, драма, 1973] BDRip 720p, Dvo [НТВ]

salma3

39 | 11

5.38 ГБ

В этой теме нет новых непрочитанных сообщений. Пораженный / Afflicted [Ужасы, триллер, 2013] BDRip 720p, mvo [Чистый звук]

Dracon

246 | 6

4.56 ГБ

В этой теме нет новых непрочитанных сообщений. Оно / It Follows (Дэвид Роберт Митчелл) [Ужасы, Детектив, 2014] BDRip 720p, dub [чистый звук]

Dracon

25 | 2

4.64 ГБ

В этой теме нет новых непрочитанных сообщений. Галлоуз Хилл / Gallows Hill / The Damned (Виктор Гарсия) [ужасы, триллер, детектив, 2013] BDRip 1080p, dub [Чистый звук]

Dracon

40 | 4

5.82 ГБ

В этой теме нет новых непрочитанных сообщений. Оно / It Follows (Дэвид Роберт Митчелл) [Ужасы, детектив, 2014] BDRip 1080p, dub [чистый звук]

Dracon

4 | 0

7.92 ГБ

В этой теме нет новых непрочитанных сообщений. Синистер 2 / Sinister 2 (Киран Фой) [ужасы, 2015] BDRip 720p, dub [Чистый звук]

Dracon

6074 | 748

4.5 ГБ

В этой теме нет новых непрочитанных сообщений. Неупокоенная / Dark Summer (Пол Солет) [триллер, ужасы, 2015] BDRip 720p, dub [Чистый звук]

Dracon

214 | 94

4.59 ГБ


Начать новую тему Ответить на тему  [ 1 сообщение ] 




Для Мосгорсуда, Роскомнадзора и рекламодателей:: mosgorsud-torrent[собачка]yandex.ru