Торрент файл
скачать торрент магнет ссылка Добавлен: 14 май 2013, 20:36
Размер: 1.46 ГБ
Сидеров: 68
Личеров: 1
Автор

СообщениеДобавлено: 14 май 2013, 20:36 

Не в сети
Зам. Админа
Аватара пользователя
Дата регистрации:
02 дек 2010, 12:39
Спасибо: 12460 / 214
Сообщения: 27968


Год выпуска: 2013
Производство: Германия, США / Metro-Goldwyn-Mayer
Жанр:Фэнтези, Боевик, Ужасы
Перевод: Дублированный [Чистый звук]
Продолжительность: 01:37:56
Субтитры: на непереведенные места
Режиссер: Томми Виркола
Продюсер: Уилл Феррелл, Бо Флинн, Крис Хенчи
Актеры: Джемма Артертон, Джереми Реннер, Фамке Янссен, Питер Стормаре, Зои Белл, Томас Манн, Ингрид Болсай Бердал, Дерек Мирс, Пихла Виитала, Моник Гандертон, Иоанна Кулиг, Стиг Фроде Хенриксен

Описание фильма:
Едва не погибнув в лапах ужасной ведьмы, Гензель и Гретель стали только сильнее. Одержимые местью, они ведут отчаянную борьбу со злом, даже не подозревая, что их поджидает нечто куда более опасное… собственное прошлое…


Качество: HDRip
Видео: XviD, 1592 Кбит/с, 720x304
Аудио: АС3, 6 ch, 448 Кбит/с



Формат: AVI
Формат/Информация: Audio Video Interleave
Размер файла: 1,46 Гбайт
Продолжительность: 1 ч. 37 м.
Общий поток: 2133 Кбит/сек
Программа кодирования: VirtualDubMod 1.5.10.2 (build 2540/release)
Библиотека кодирования: VirtualDubMod build 2540/release

Видео
Идентификатор: 0
Формат: MPEG-4 Visual
Профиль формата: Advanced Simple@L5
Параметр BVOP формата: 2
Параметр QPel формата: Нет
Параметр GMC формата: Без точки перехода
Параметр матрицы формата: Default (H.263)
Идентификатор кодека: XVID
Идентификатор кодека/Подсказка: XviD
Продолжительность: 1 ч. 37 м.
Битрейт: 1592 Кбит/сек
Ширина: 720 пикселей
Высота: 304 пикселя
Соотношение сторон: 2,35:1
Частота кадров: 23,976 кадра/сек
Цветовое пространство: YUV
Субдискретизация насыщенности: 4:2:0
Битовая глубина: 8 бит
Тип развёртки: Прогрессивная
Метод сжатия: С потерями
Бит/(Пиксели*Кадры): 0.303
Размер потока: 1,09 Гбайт (75%)
Библиотека кодирования: XviD 1.2.1 (UTC 2008-12-04)

Аудио
Идентификатор: 1
Формат: AC-3
Формат/Информация: Audio Coding 3
Расширение режима: CM (complete main)
Параметр Endianness формата: Big
Идентификатор кодека: 2000
Продолжительность: 1 ч. 37 м.
Вид битрейта: Постоянный
Битрейт: 448 Кбит/сек
Каналы: 6 каналов
Расположение каналов: Front: L C R, Side: L R, LFE
Частота: 48,0 КГц
Битовая глубина: 16 бит
Метод сжатия: С потерями
Размер потока: 314 Мбайт (21%)
Выравнивание: Разделение по промежуткам






реклама партнёра


Вернуться к началу
 Профиль  
 
   Похожие торренты   Автор   Торрент   Размер 
В этой теме нет новых непрочитанных сообщений. Последний охотник на ведьм / The Last Witch Hunter [фэнтези, боевик, приключения, 2015] HDRip, Dub [iTunes]

Dracon

1400 | 33

1.37 ГБ

В этой теме нет новых непрочитанных сообщений. Последний охотник на ведьм / The Last Witch Hunter [фэнтези, боевик, приключения, 2015] HDRip, Dub [iTunes]

Dracon

235 | 5

2.05 ГБ

В этой теме нет новых непрочитанных сообщений. Гензель против Гретель / Hansel Vs. Gretel [ужасы, 2015] WEB-DL 720p, Avo

salma3

55 | 4

2.8 ГБ

В этой теме нет новых непрочитанных сообщений. Гензель против Гретель / Hansel Vs. Gretel [ужасы, 2015] WEB-DLRip, Avo

salma3

307 | 10

1.37 ГБ

В этой теме нет новых непрочитанных сообщений. Геракл / Hercules [EXTENDED] [Боевик, Приключения, Фэнтези, 2014] BDRip 720p, dub [Чистый звук]

Dracon

20 | 2

5.59 ГБ

В этой теме нет новых непрочитанных сообщений. Геракл / Hercules [EXTENDED] [Боевик, Приключения, Фэнтези, 2014] BDRip 1080p, dub+sub [Чистый звук]

Dracon

36 | 2

11.18 ГБ

В этой теме нет новых непрочитанных сообщений. Геракл / Hercules Геракл / Hercules [EXTENDED] [Боевик, Приключения, Фэнтези, 2014] HDRip, dub [Чистый звук]

Dracon

321 | 6

1.37 ГБ


Начать новую тему Ответить на тему  [ 1 сообщение ] 




Для Мосгорсуда, Роскомнадзора и рекламодателей:: mosgorsud-torrent[собачка]yandex.ru