Торрент файл
скачать торрент магнет ссылка Добавлен: 14 май 2013, 15:25
Размер: 3.19 ГБ
Сидеров: 0
Личеров: 2
Автор

СообщениеДобавлено: 14 май 2013, 15:25 

Не в сети
Зам. Админа
Аватара пользователя
Дата регистрации:
02 дек 2010, 12:39
Спасибо: 12458 / 214
Сообщения: 27968


Год выхода: 2013
Жанр:боевик, триллер, криминал
Режиссер: Джон Мур
В ролях: Брюс Уиллис, Джай Кортни, Себастьян Кох, Юлия Снигирь, Радивойе Буквич, Сергей Колесников, Мэри Элизабет Уинстэд, Коул Хаузер, Амори Ноласко, Роман Лукнар

О фильме:
Джон МакКлейн прибывает в Москву, чтобы вызволить из тюрьмы своего непредсказуемого сына, но холодная голова и железные мускулы вязнут в паутине российской действительности. Дело, в которое влип МакКлейн-младший, оказывается настолько «опасной трясиной», что отцу и сыну, чтобы выжить и в очередной раз спасти мир, приходится объединить свои усилия, забыв прежние, казалось бы, непреодолимые разногласия.



Выпущено: США / Twentieth Century Fox Film Corporation, TSG Entertainment, Giant Pictures
Продолжительность: 01:38:11
Озвучивание: Дублированное [Звук с TS]

Формат: MKV
Качество: WEB-DL 720p [HDWinG]
Видео: 3984 kb/s, 1280x692
Аудио: Russian: MP3, 192 kb/s (2 ch) / English: AC3, 384 Kb/s (6 ch)
Дополнительно: Сохранены оригинальные чапреты как на Blu-Ray

Семпл

General
Unique ID: 180329922258800403262957237277365465332 (0x87AA479B625A60A8A6ECAD53A15970F4)
Complete name: A.Good.Day.to.Die.Hard.2013.WEBDL.720p.mkv
Format: Matroska
Format version: Version 4 / Version 2
File size: 3.19 GiB
Duration: 1h 38mn
Overall bit rate: 4 648 Kbps
Encoded date: UTC 2013-05-15 10:50:46
Writing application: mkvmerge v6.1.0 ('Old Devil') built on Mar2 2013 14:32:37
Writing library: libebml v1.3.0 + libmatroska v1.4.0

Video
ID: 1
Format: AVC
Format/Info: Advanced Video Codec
Format profile: High@L3.1
Format settings, CABAC: No
Format settings, ReFrames: 2 frames
Codec ID: V_MPEG4/ISO/AVC
Duration: 1h 38mn
Bit rate: 3 980 Kbps
Width: 1 280 pixels
Height: 692 pixels
Display aspect ratio: 1.85:1
Frame rate: 23.976 fps
Color space: YUV
Chroma subsampling: 4:2:0
Bit depth: 8 bits
Scan type: Progressive
Bits/(Pixel*Frame): 0.187
Stream size: 2.73 GiB (86%)
Title: A.Good.Day.to.Die.Hard.2013.720p.WEB-DL.H264-HDWinG
Language: English
Default: Yes
Forced: Yes
Color primaries: BT.709-5, BT.1361, IEC 61966-2-4, SMPTE RP177
Transfer characteristics: BT.709-5, BT.1361
Matrix coefficients: BT.709-5, BT.1361, IEC 61966-2-4 709, SMPTE RP177

Audio #1
ID: 2
Format: MPEG Audio
Format version: Version 1
Format profile: Layer 3
Mode: Joint stereo
Codec ID: A_MPEG/L3
Codec ID/Hint: MP3
Duration: 1h 38mn
Bit rate mode: Constant
Bit rate: 192 Kbps
Channel(s): 2 channels
Sampling rate: 48.0 KHz
Compression mode: Lossy
Stream size: 135 MiB (4%)
Title: DD 2.0 @ 192 kbps - Dub, TS
Language: Russian
Default: Yes
Forced: Yes

Audio #2
ID: 3
Format: AC-3
Format/Info: Audio Coding 3
Mode extension: CM (complete main)
Format settings, Endianness: Big
Codec ID: A_AC3
Duration: 1h 38mn
Bit rate mode: Constant
Bit rate: 384 Kbps
Channel(s): 6 channels
Channel positions: Front: L C R, Side: L R, LFE
Sampling rate: 48.0 KHz
Bit depth: 16 bits
Compression mode: Lossy
Stream size: 270 MiB (8%)
Title: DD 5.1 @ 384 kbps
Language: English
Default: No
Forced: No

Menu
00:00:00.000: en:Chapter 1
00:02:52.000: en:Chapter 2
00:05:02.000: en:Chapter 3
00:09:50.000: en:Chapter 4
00:12:28.000: en:Chapter 5
00:15:41.000: en:Chapter 6
00:18:18.000: en:Chapter 7
00:21:45.000: en:Chapter 8
00:26:57.000: en:Chapter 9
00:30:57.000: en:Chapter 10
00:34:33.000: en:Chapter 11
00:38:21.000: en:Chapter 12
00:40:28.000: en:Chapter 13
00:44:12.000: en:Chapter 14
00:48:23.000: en:Chapter 15
00:51:13.000: en:Chapter 16
00:54:42.000: en:Chapter 17
00:59:23.000: en:Chapter 18
01:01:22.000: en:Chapter 19
01:06:19.000: en:Chapter 20
01:09:42.000: en:Chapter 21
01:14:16.000: en:Chapter 22
01:15:42.000: en:Chapter 23
01:19:29.000: en:Chapter 24
01:21:39.000: en:Chapter 25
01:23:27.000: en:Chapter 26
01:27:59.000: en:Chapter 27
01:31:54.000: en:Chapter 28




Релиз от:




реклама партнёра


Вернуться к началу
 Профиль  
 
   Похожие торренты   Автор   Торрент   Размер 
В этой теме нет новых непрочитанных сообщений. Крепкий орешек: Хороший день, чтобы умереть / A Good Day to Die Hard (Джон Мур / John Moore) [2013, США, боевик, триллер, криминал, HQRip-AVC] [Расширенная версия / Extended Сut] Dub

PriZraK

53 | 1

1.43 ГБ

В этой теме нет новых непрочитанных сообщений. Крепкий орешек 3: Возмездие / Die Hard: With a Vengeance [Боевик, триллер, драма, криминал, 1995] BDRip 1080p, Mvo+Sub

salma3

67 | 4

7.75 ГБ

В этой теме нет новых непрочитанных сообщений. Легкие деньги / Good People [боевик, триллер, криминал, 2014] BDRip 720p, dub [Чистый звук]

Dracon

86 | 3

6.13 ГБ

В этой теме нет новых непрочитанных сообщений. Хороший человек / A Good Man [Боевик, 2014] WEB-DL 720p, Avo

salma3

212 | 20

4.13 ГБ

В этой теме нет новых непрочитанных сообщений. Ромео должен умереть / Romeo Must Die [боевик, триллер, криминал, 2000] BDRip 720p, Dub

salma3

25 | 5

4.37 ГБ

В этой теме нет новых непрочитанных сообщений. Легкие деньги / Good People [боевик, триллер, криминал, 2014] HDRip, dub [чистый звук]

Dracon

4 | 4

1.37 ГБ

В этой теме нет новых непрочитанных сообщений. 6 способов умереть / 6 Ways to Sundown (Надим Сума) [боевик, триллер, криминал, 2015] WEB-DL 720p, dvo

Dracon

1132 | 40

3.31 ГБ


Начать новую тему Ответить на тему  [ 1 сообщение ] 




Для Мосгорсуда, Роскомнадзора и рекламодателей:: mosgorsud-torrent[собачка]yandex.ru