Торрент файл
скачать торрент магнет ссылка Добавлен: 13 май 2013, 20:40
Размер: 1.43 ГБ
Сидеров: 16
Личеров: 4
Автор

СообщениеДобавлено: 13 май 2013, 20:40 

Не в сети
Супермодератор
Аватара пользователя
Дата регистрации:
15 фев 2012, 16:44
Возраст: 27
Спасибо: 5121 / 2089
Сообщения: 17296
Страна: Аргентина, Бразилия, Испания
Жанр:Драма
Год выпуска: 2011
Продолжительность: 01:50:33

Перевод: Одноголосый закадровый
Cубтитры: русские
Оригинальная аудиодорожка: испанский

Режиссер: Бенхамин Авила

В ролях: Тео Гутьерес Ромеро, Эрнесто Альтерио, Наталья Орейро, Сесар Тронкосо, Кристина Банегас, Майяна Нейва, Дуглас Симон, Виолета Палукас и др.

Описание: 11-летний Хуан вынужден жить под вымышленным именем Эрнесто и скрываться от преследований вместе с родителями, членами вооруженной революционной группировки, борющейся против военной диктатуры в Аргентине. Его жизнь так окутана секретами и конспирацией, что его первая любовь к девочке Марии, с которой он знакомится в школе, станет еще одной его тайной...


Сэмпл: http://multi-up.com/865007

Качество видео: DVDRip
Формат видео: AVI

Видео: 720x304 (2.37:1), 23.976 fps, XviD 1.1 beta 2 (build 39) ~1520 kbps avg, 0.29 bit/pixel
Аудио 1: 48 kHz, MPEG Layer 3, 2 ch, ~192.00 kbps avg(Русский)
Аудио 2: 48 kHz, MPEG Layer 3, 2 ch, ~128.00 kbps avg(Испанский)
Формат субтитров: softsub (SRT)
Доп. информация о субтитрах: Русские внешние (Алексей Крылов aka rrrtttsss aka prostotak)


Общее
Полное имя : D:Мои видеозаписиПодпольное детствоInfancia clandestina (2011).avi
Формат : AVI
Формат/Информация : Audio Video Interleave
Размер файла : 1,43 Гбайт
Продолжительность : 1 ч. 50 м.
Общий поток : 1855 Кбит/сек
Программа кодирования : VirtualDubModRus 1.5.10.2 (build 2542/release)
Библиотека кодирования : VirtualDubMod build 2542/release

Видео
Идентификатор : 0
Формат : MPEG-4 Visual
Профиль формата : Simple@L3
Параметр BVOP формата : Нет
Параметр QPel формата : Нет
Параметр GMC формата : Без точки перехода
Параметр матрицы формата : Выборочная
Идентификатор кодека : XVID
Идентификатор кодека/Подсказка : XviD
Продолжительность : 1 ч. 50 м.
Битрейт : 1521 Кбит/сек
Ширина : 720 пикселей
Высота : 304 пикселя
Соотношение сторон : 2,35:1
Частота кадров : 23,976 кадра/сек
Цветовое пространство : YUV
Субдискретизация насыщенности : 4:2:0
Битовая глубина : 8 бит
Тип развёртки : Прогрессивная
Метод сжатия : С потерями
Бит/(Пиксели*Кадры) : 0.290
Размер потока : 1,17 Гбайт (82%)
Библиотека кодирования : XviD 1.1.0 Beta2 (UTC 2005-04-04)

Аудио #1
Идентификатор : 1
Формат : MPEG Audio
Версия формата : Version 1
Профиль формата : Layer 3
Режим : Joint stereo
Расширение режима : MS Stereo
Идентификатор кодека : 55
Идентификатор кодека/Подсказка : MP3
Продолжительность : 1 ч. 50 м.
Вид битрейта : Постоянный
Битрейт : 192 Кбит/сек
Каналы : 2 канала
Частота : 48,0 КГц
Метод сжатия : С потерями
Размер потока : 152 Мбайт (10%)
Выравнивание : Соединение по промежуткам
Продолжительность промежутка : 42 мс. (1,00 видеокадр)
Время предзагрузки промежутка : 504 мс.
Библиотека кодирования : LAME3.98

Аудио #2
Идентификатор : 2
Формат : MPEG Audio
Версия формата : Version 1
Профиль формата : Layer 3
Режим : Joint stereo
Расширение режима : MS Stereo
Идентификатор кодека : 55
Идентификатор кодека/Подсказка : MP3
Продолжительность : 1 ч. 50 м.
Вид битрейта : Постоянный
Битрейт : 128 Кбит/сек
Каналы : 2 канала
Частота : 48,0 КГц
Метод сжатия : С потерями
Размер потока : 101 Мбайт (7%)
Выравнивание : Соединение по промежуткам
Продолжительность промежутка : 42 мс. (1,00 видеокадр)
Время предзагрузки промежутка : 504 мс.
Библиотека кодирования : LAME3.98r
Настройки программы : -m j -V 4 -q 2 -lowpass 17 -b 128






реклама партнёра


Вернуться к началу
 Профиль Отправить личное сообщение  
 
   Похожие торренты   Автор   Торрент   Размер 
В этой теме нет новых непрочитанных сообщений. Детство лидера / The Childhood of a Leader [Ужасы, драма, детектив, 2015] WEB-DLRip, Dub [iTunes]

marya111

30 | 3

745.7 МБ

В этой теме нет новых непрочитанных сообщений. Детство лидера / The Childhood of a Leader [триллер, драма, детектив, 2015] WEB-DLRip, Dub [iTunes]

salma3

115 | 74

1.46 ГБ

В этой теме нет новых непрочитанных сообщений. Детство лидера / The Childhood of a Leader [ужасы, драма, детектив, 2015] WEB-DL 1080р, Dub [iTunes]

salma3

385 | 61

4.33 ГБ

В этой теме нет новых непрочитанных сообщений. Детство лидера / The Childhood of a Leader [ужасы, драма, детектив, 2015] WEB-DLRip-AVC, Dub [iTunes]

marya111

58 | 0

1.46 ГБ

В этой теме нет новых непрочитанных сообщений. Поближе / A Little Closer [драма, 2011] DVDRip, Mvo

salma3

11 | 2

872.29 МБ

В этой теме нет новых непрочитанных сообщений. Управление государством / L'exercice de l'État [драма, 2011] DVDRip, Avo

salma3

54 | 2

1.46 ГБ

В этой теме нет новых непрочитанных сообщений. Мало вариантов / Few Options [драма, криминал, 2011] DVDRip, Mvo [НТВ+]

salma3

5 | 3

1.37 ГБ


Начать новую тему Ответить на тему  [ 1 сообщение ] 




Для Мосгорсуда, Роскомнадзора и рекламодателей:: mosgorsud-torrent[собачка]yandex.ru