Торрент файл
скачать торрент магнет ссылка Добавлен: 13 май 2013, 13:25
Размер: 1.45 ГБ
Сидеров: 3
Личеров: 2
Автор

СообщениеДобавлено: 13 май 2013, 13:25 

Не в сети
Супермодератор
Аватара пользователя
Дата регистрации:
15 фев 2012, 16:44
Возраст: 27
Спасибо: 5139 / 2089
Сообщения: 17411

Мамочка-маньячка-убийца / Serial Mom

Год выхода: 1994
Жанр: триллер, комедия, криминал
Режиссер: Джон Уотерс

В ролях: Кэтлин Тёрнер, Сэм Уотерстон, Рики Лейк, Мэттью Лиллард, Скотт Морган, Уолт Макферсон, Джастин Уэйлин, Патриция Даннок, Лонни Хорси, Минк Стоул

О фильме: Типичная американская семья — как в рекламе. Большой дом в Балтиморе. Мамочка-домохозяйка: милая, любящая и настолько безупречная, что того и гляди запоет. Да, вот еще: когда детишки уходят в школу а муж на работу, она… убивает.

С выбором очередной жертвы проблем нет: достаточно отдать предпочтение другой девочке поприятней чем ее дочурка, накричать на ее сына, надеть белые тапочки в День труда, не перемотать пленку на начало видеокассеты и ваши дни сочтены. И уж будьте уверены, разделается она с вами самым изощренным способом.



Страна: США
Продолжительность: 01:33:46
Перевод: Профессиональный (многоголосый закадровый), Оригинал (Английский)

Файл
Кодек: x.264
Качество: BDRip-AVC
Видео: 1024x560 (1,85:1), 23,976 fps, 1574 kbps, 0.114 bit/pixel
Аудио #1: 48 kHz, AC3 Dolby Digital, 2 ch, ~448.00 kbps (Русский)
Аудио #2: 48 kHz, AC3 Dolby Digital, 2 ch, ~192.00 kbps (Английский)
Субтитры: Русские, Английские (отключаемые)

&

Общее
Уникальный идентификатор : 222994215304726208892373324653701706801 (0xA7C31FA8B5992A13BEA4CA3562393431)
Полное имя : D:TorrentSerial Mom.1994.BDRip-AVC.mkv
Формат : Matroska
Версия формата : Version 4 / Version 2
Размер файла : 1,45 Гбайт
Продолжительность : 1 ч. 33 м.
Общий поток : 2215 Кбит/сек
Название фильма : Мамочка-маньячка-убийца / Serial Mom (1994) BDRip-AVC rip by Rulya74
Дата кодирования : UTC 2013-05-13 03:49:53
Программа кодирования : mkvmerge v6.2.0 ('Promised Land') built on Apr 28 2013 12:22:01
Библиотека кодирования : libebml v1.3.0 + libmatroska v1.4.0

Видео
Идентификатор : 1
Формат : AVC
Формат/Информация : Advanced Video Codec
Профиль формата : High@L4.1
Параметр CABAC формата : Да
Параметр ReFrames формата : 10 кадров
Идентификатор кодека : V_MPEG4/ISO/AVC
Продолжительность : 1 ч. 33 м.
Битрейт : 1574 Кбит/сек
Ширина : 1024 пикселя
Высота : 560 пикселей
Соотношение сторон : 1,85:1
Режим частоты кадров : Постоянный
Частота кадров : 23,976 кадра/сек
Цветовое пространство : YUV
Субдискретизация насыщенности : 4:2:0
Битовая глубина : 8 бит
Тип развёртки : Прогрессивная
Бит/(Пиксели*Кадры) : 0.114
Размер потока : 1,00 Гбайт (69%)
Библиотека кодирования : x264 core 132 r2310 76a5c3a
Настройки программы : cabac=1 / ref=10 / deblock=1:-1:-1 / analyse=0x3:0x113 / me=umh / subme=10 / psy=1 / psy_rd=1.22:0.05 / mixed_ref=1 / me_range=32 / chroma_me=1 / trellis=2 / 8x8dct=1 / cqm=0 / deadzone=21,11 / fast_pskip=0 / chroma_qp_offset=-3 / threads=2 / lookahead_threads=1 / sliced_threads=0 / nr=0 / decimate=1 / interlaced=0 / bluray_compat=0 / constrained_intra=0 / bframes=8 / b_pyramid=2 / b_adapt=2 / b_bias=0 / direct=1 / weightb=1 / open_gop=0 / weightp=2 / keyint=240 / keyint_min=22 / scenecut=40 / intra_refresh=0 / rc_lookahead=40 / rc=2pass / mbtree=1 / bitrate=1574 / ratetol=1.0 / qcomp=0.60 / qpmin=0 / qpmax=69 / qpstep=4 / cplxblur=20.0 / qblur=0.5 / vbv_maxrate=62500 / vbv_bufsize=78125 / nal_hrd=none / ip_ratio=1.40 / aq=1:1.00
Default : Да
Forced : Нет

Аудио #1
Идентификатор : 2
Формат : AC-3
Формат/Информация : Audio Coding 3
Расширение режима : CM (complete main)
Параметр Endianness формата : Big
Идентификатор кодека : A_AC3
Продолжительность : 1 ч. 33 м.
Вид битрейта : Постоянный
Битрейт : 448 Кбит/сек
Каналы : 2 канала
Расположение каналов : Front: L R
Частота : 48,0 КГц
Битовая глубина : 16 бит
Метод сжатия : С потерями
Размер потока : 300 Мбайт (20%)
Заголовок : Профессиональный (многоголосый закадровый)
Язык : Russian
Default : Да
Forced : Нет

Аудио #2
Идентификатор : 3
Формат : AC-3
Формат/Информация : Audio Coding 3
Расширение режима : CM (complete main)
Параметр Endianness формата : Big
Идентификатор кодека : A_AC3
Продолжительность : 1 ч. 33 м.
Вид битрейта : Постоянный
Битрейт : 192 Кбит/сек
Каналы : 2 канала
Расположение каналов : Front: L R
Частота : 48,0 КГц
Битовая глубина : 16 бит
Метод сжатия : С потерями
Размер потока : 129 Мбайт (9%)
Заголовок : Оригинал
Язык : English
Default : Нет
Forced : Нет

Текст #1
Идентификатор : 4
Формат : UTF-8
Идентификатор кодека : S_TEXT/UTF8
Идентификатор кодека/Информация : UTF-8 Plain Text
Язык : Russian
Default : Да
Forced : Нет

Текст #2
Идентификатор : 5
Формат : UTF-8
Идентификатор кодека : S_TEXT/UTF8
Идентификатор кодека/Информация : UTF-8 Plain Text
Язык : English
Default : Нет
Forced : Нет





реклама партнёра


Вернуться к началу
 Профиль Отправить личное сообщение  
 
   Похожие торренты   Автор   Торрент   Размер 
В этой теме нет новых непрочитанных сообщений. Я не серийный убийца / I Am Not a Serial Killer [триллер, 2016] HDRip, Avo

salma3

97 | 1

1.25 ГБ

В этой теме нет новых непрочитанных сообщений. Я не серийный убийца / I Am Not a Serial Killer [триллер, 2016] WEB-DLRip, mvo

marya111

27 | 2

1.45 ГБ

В этой теме нет новых непрочитанных сообщений. Я не серийный убийца / I Am Not a Serial Killer [триллер, 2016] WEB-DL 1080p, mvo

marya111

38 | 4

4.4 ГБ

В этой теме нет новых непрочитанных сообщений. Бумажный след / Papertrail / Serial Cops / Trail Of The Serial Killer [триллер, драма, криминал, 1998] DVDRip, Avo

salma3

13 | 4

1.46 ГБ

В этой теме нет новых непрочитанных сообщений. Убийца / Sicario [боевик, триллер, драма, криминал, детектив, 2015] BDRip-AVC, Dub

salma3

61 | 5

1.4 ГБ

В этой теме нет новых непрочитанных сообщений. Убийца / Sicario [боевик, триллер, драма, криминал, детектив, 2015] BDRip-AVC, Dub

salma3

100 | 2

2.13 ГБ

В этой теме нет новых непрочитанных сообщений. Плачущий убийца / Crying Freeman [Боевик, триллер, криминал, 1995] BDRip 720p, Mvo+Avo+Sub

salma3

18 | 4

4.2 ГБ


Начать новую тему Ответить на тему  [ 1 сообщение ] 




Для Мосгорсуда, Роскомнадзора и рекламодателей:: mosgorsud-torrent[собачка]yandex.ru