Торрент файл
скачать торрент магнет ссылка Добавлен: 11 май 2013, 00:05
Размер: 745.15 МБ
Сидеров: 7
Личеров: 3
Статус: (salma3)
Автор

СообщениеДобавлено: 11 май 2013, 00:05 

Не в сети
Супермодератор
Аватара пользователя
Дата регистрации:
15 фев 2012, 16:44
Возраст: 28
Спасибо: 6565 / 2130
Сообщения: 43671
Коллекционер / The Collector


Год выпуска: 1965
Страна: Великобритания, США
Жанр:триллер, драма
Продолжительность: 01:59:12
Перевод: Профессиональный (многоголосый закадровый)
Субтитры: нет


Режиссер: Уильям Уайлер / William Wyler

В ролях: Теренс Стэмп, Саманта Эггар, Мона Уошборн, Морис Дэллимор, Аллисон Амес, Гордон Барклай, Уильям Биклей, Дэвид Хэвиланд, Кеннет Мор, Эдина Ронай

Описание: Банковский клерк Фредди Клегг коллекционирует бабочек. Он знает про них все, что только можно знать. Знать женщин у Фредди получается гораздо хуже. Но он пытается «коллекционировать» их тоже.

Однажды Фредди похищает хорошенькую студентку Миранду Грэй, и прячет ее там, где никто и никогда не сможет ее найти. Фредди не желает ей зла, не делает ей ничего плохого, он просто полагает, что если Миранда будет проводить с ним много времени, то она привыкнет к нему и полюбит его…


Качество: BDRip [BDRemux]
Формат: AVI
Видео: XviD, 656x352 (1.864), 23.976 fps, 737 Kbps, 0.133 Bits/(Pixel*Frame)
Аудио: MP3, 48 KHz, 128 Kbps, 2 channels

Раздача от:
General
Complete name: D:Kollekcioner.1965.BDRip.XviD.mp3.745mb.YTN.avi
Format: AVI
Format/Info: Audio Video Interleave
File size: 745 MiB
Duration: 1h 59mn
Overall bit rate: 874 Kbps
Writing application: VirtualDubMod 1.5.10.3 | http://www.virtualdub-fr.org || (build 2550/release)
Writing library: VirtualDubMod build 2550/release

Video
ID: 0
Format: MPEG-4 Visual
Format profile: Advanced Simple@L5
Format settings, BVOP: 1
Format settings, QPel: No
Format settings, GMC: No warppoints
Format settings, Matrix: Custom
Codec ID: XVID
Codec ID/Hint: XviD
Duration: 1h 59mn
Bit rate: 737 Kbps
Width: 656 pixels
Height: 352 pixels
Display aspect ratio: 1.864
Frame rate: 23.976 fps
Color space: YUV
Chroma subsampling: 4:2:0
Bit depth: 8 bits
Scan type: Progressive
Compression mode: Lossy
Bits/(Pixel*Frame): 0.133
Stream size: 628 MiB (84%)
Writing library: XviD 65

Audio
ID: 1
Format: MPEG Audio
Format version: Version 1
Format profile: Layer 3
Mode: Joint stereo
Mode extension: MS Stereo
Codec ID: 55
Codec ID/Hint: MP3
Duration: 1h 59mn
Bit rate mode: Constant
Bit rate: 128 Kbps
Channel(s): 2 channels
Sampling rate: 48.0 KHz
Compression mode: Lossy
Stream size: 109 MiB (15%)
Alignment: Aligned on interleaves
Interleave, duration: 42 ms (1.00 video frame)
Interleave, preload duration: 504 ms




реклама партнёра


Вернуться к началу
 Профиль Отправить личное сообщение  
 
   Похожие торренты   Автор   Торрент   Размер 
В этой теме нет новых непрочитанных сообщений. Коллекционер / The Collector [ужасы, триллер, 2009] BDRip 720p, Dub [iPad]

salma3

0 | 0

1.9 ГБ

В этой теме нет новых непрочитанных сообщений. Власть страха / The Bone Collector [Драма, Триллер, Криминал, Детектив, 1999] BDRip 1080p, Dub+Sub

salma3

1 | 1

7.15 ГБ

В этой теме нет новых непрочитанных сообщений. Коллекционер 2 / The Collection [ужасы, боевик, триллер, 2012] BDRip 720p, Dub [iPad]

salma3

0 | 0

1.73 ГБ

В этой теме нет новых непрочитанных сообщений. Власть страха / The Bone Collector [триллер, драма, криминал, 1999] WEB-DLRip-AVC, Dub [Open Matte]

salma3

33 | 4

748.17 МБ

В этой теме нет новых непрочитанных сообщений. Власть страха / The Bone Collector [триллер, драма, криминал, 1999] WEB-DL 1080p, Dub [Open Matte]

salma3

10 | 0

16.09 ГБ

В этой теме нет новых непрочитанных сообщений. Власть страха / The Bone Collector [триллер, драма, криминал, 1999] WEB-DLRip, Dub [Open Matte]

salma3

54 | 17

1.45 ГБ

В этой теме нет новых непрочитанных сообщений. 007: Шаровая молния / Thunderball [боевик, триллер, криминал, 1965] BDRip-AVC, Dub

salma3

0 | 45

3.96 ГБ


Начать новую тему Ответить на тему  [ 1 сообщение ] 




Для Мосгорсуда, Роскомнадзора и рекламодателей:: mosgorsud-torrent[собачка]yandex.ru