Торрент файл
скачать торрент магнет ссылка Добавлен: 09 май 2013, 21:26
Размер: 1.57 ГБ
Сидеров: 10
Личеров: 4
Автор

СообщениеДобавлено: 09 май 2013, 21:26 

Не в сети
Супермодератор
Аватара пользователя
Дата регистрации:
15 фев 2012, 16:44
Возраст: 27
Спасибо: 5130 / 2089
Сообщения: 17350

Красавчик Джо / Beautiful Joe

Год выхода: 2000
Жанр: Драма, мелодрама, комедия
Режиссер: Стивен Меткаф
В ролях: Шэрон Стоун, Билли Коннолли, Джил Беллоуз, Джерни Смоллетт, Диллон Моэн, Джеймс Вулветт, Алан С. Петерсон, Дэнн Флорек, Иэн Холм, Шила Патерсон, Фрэнк Ч. Тернер, Джина Чиарелли, Бен Джонсон, Коннор Виддоуз, Норман Армор, Барбара Тайсон, Бен Деррик, Кен Поуг, Джонатан МакМартри, Дин Пол Гибсон, Карен Элизабет Остин, Шелли Адам, Майкл Роулинз, Хиро Канагава

О фильме:
Странствующий по свету в поисках счастья Джо однажды набрел на свою судьбу. Но на его беду ею оказалась не заветная синяя птица, а обворожительная Хаш — бывшая стриптизерша, зарабатывающая себе на жизнь сомнительным промыслом и к тому же обремененная детьми. Однако это было только началом "долгожданных" перемен в жизни Джо. Вскоре выяснилось, что Хаш задолжала крупную сумму местному преступному авторитету. Теперь Джо предстоит совершить опасный побег из города со своей новой возлюбленной и отправиться в головокружительное путешествие по Америке. Пускаясь в эти немыслимые приключения, он и представить себе не мог, какие еще сюрпризы приготовила ему непредсказуемая спутница...



Страна: США, Великобритания
Студия: Beautiful Films, Capitol Films, Haft Entertainment, Pacific Motion Pictures Corporation, Stratosphere Entertainment LLC
Продолжительность: 01:33:49
Перевод: Профессиональный (двухголосый закадровый), авторский (одноголосый закадровый)

Файл
Кодек: XviD
Качество: DVDRip
Видео: 1431 Кбит/с, 688x512, 25.000 кадр/с
Звук:
Аудио №1: Русский (АС3, 6 ch, 384 Кбит/с) Профессиональный двухголосый
Аудио №2: Английский (АС3, 6 ch, 384 Кбит/с)
Отдельно:
Аудио №3: Русский (АС3, 2 ch, 192 Кбит/с) Авторский [Юрий Сербин]

Субтитры: Русские


Полное имя: Krasavchik.Dzho.2000.XviD.DVDRip.avi
Формат: AVI
Формат/Информация: Audio Video Interleave
Размер файла: 1,45 Гбайт
Продолжительность: 1 ч. 33 м.
Общий поток: 2213 Кбит/сек
Программа кодирования: VirtualDubMod 1.5.10.2 (build 2540/release)
Библиотека кодирования: VirtualDubMod build 2540/release

Видео
Идентификатор: 0
Формат: MPEG-4 Visual
Профиль формата: Advanced Simple@L5
Параметр BVOP формата: 1
Параметр QPel формата: Нет
Параметр GMC формата: Без точки перехода
Параметр матрицы формата: Выборочная
Идентификатор кодека: XVID
Идентификатор кодека/Подсказка: XviD
Продолжительность: 1 ч. 33 м.
Битрейт: 1431 Кбит/сек
Ширина: 688 пикселей
Высота: 512 пикселей
Соотношение сторон: 4:3
Частота кадров: 25,000 кадров/сек
Цветовое пространство: YUV
Субдискретизация насыщенности: 4:2:0
Битовая глубина: 8 бит
Тип развёртки: Прогрессивная
Метод сжатия: С потерями
Бит/(Пиксели*Кадры): 0.162
Размер потока: 960 Мбайт (65%)
Библиотека кодирования: XviD 64

Аудио #1
Идентификатор: 1
Формат: AC-3
Формат/Информация: Audio Coding 3
Расширение режима: CM (complete main)
Идентификатор кодека: 2000
Продолжительность: 1 ч. 33 м.
Вид битрейта: Постоянный
Битрейт: 384 Кбит/сек
Каналы: 6 каналов
Расположение каналов: Front: L C R, Side: L R, LFE
Частота: 48,0 КГц
Битовая глубина: 16 бит
Метод сжатия: С потерями
Размер потока: 258 Мбайт (17%)
Выравнивание: Разделение по промежуткам
Продолжительность промежутка: 40мс. (1,00 видеокадр)
Время предзагрузки промежутка: 500мс.

Аудио #2
Идентификатор: 2
Формат: AC-3
Формат/Информация: Audio Coding 3
Расширение режима: CM (complete main)
Идентификатор кодека: 2000
Продолжительность: 1 ч. 33 м.
Вид битрейта: Постоянный
Битрейт: 384 Кбит/сек
Каналы: 6 каналов
Расположение каналов: Front: L C R, Side: L R, LFE
Частота: 48,0 КГц
Битовая глубина: 16 бит
Метод сжатия: С потерями
Размер потока: 258 Мбайт (17%)
Выравнивание: Разделение по промежуткам
Продолжительность промежутка: 40мс. (1,00 видеокадр)
Время предзагрузки промежутка: 500мс.







реклама партнёра


Вернуться к началу
 Профиль Отправить личное сообщение  
 
   Похожие торренты   Автор   Торрент   Размер 
В этой теме нет новых непрочитанных сообщений. Красивые девушки / Beautiful Girls [Драма, мелодрама, комедия, 1996] BDRip, Dvo

salma3

33 | 3

1.45 ГБ

В этой теме нет новых непрочитанных сообщений. Красивые девушки / Beautiful Girls [Драма, мелодрама, комедия, 1996] BDRip 720p, Dvo+Sub

salma3

8 | 6

7.14 ГБ

В этой теме нет новых непрочитанных сообщений. Там, где сердце / Where the Heart Is [драма, мелодрама, комедия, 2000] DVDRip, Dub+Sub

salma3

18 | 5

2.18 ГБ

В этой теме нет новых непрочитанных сообщений. Любой ценой / Whatever It Takes [драма, мелодрама, комедия, 2000] DVDRip, Mvo

salma3

64 | 9

1.46 ГБ

В этой теме нет новых непрочитанных сообщений. Итальянский для начинающих / Italiensk for begyndere [драма, мелодрама, комедия, 2000] DVDRip, Dvo

salma3

22 | 3

1.46 ГБ

В этой теме нет новых непрочитанных сообщений. Смешение жанров / La confusion des genres [драма, мелодрама, комедия, 2000] DVDRip, Mvo

salma3

24 | 5

1.37 ГБ

В этой теме нет новых непрочитанных сообщений. Рокки Красавчик / Rocky Handsome [боевик, триллер, драма, криминал, 2016] DVDRip, Dvo

salma3

187 | 9

1.74 ГБ


Начать новую тему Ответить на тему  [ 1 сообщение ] 




Для Мосгорсуда, Роскомнадзора и рекламодателей:: mosgorsud-torrent[собачка]yandex.ru