Торрент файл
скачать торрент магнет ссылка Добавлен: 09 май 2013, 00:50
Размер: 2.43 ГБ
Сидеров: 24
Личеров: 11
Статус: (salma3)
Автор

СообщениеДобавлено: 09 май 2013, 00:50 

Не в сети
Супермодератор
Аватара пользователя
Дата регистрации:
15 фев 2012, 16:44
Возраст: 27
Спасибо: 5139 / 2089
Сообщения: 17423

Андерсонвилль / Andersonville

Страна: США
Производство: Turner Pictures (I)
Жанр:Исторический, драма, военный
Год выпуска: 1996

Продолжительность: 02:47:30
Перевод: Профессиональный [многоголосый], авторский [одноголосый закадровые]

Оригинальная аудиодорожка: Английская

Cубтитры: Нет
Режиссер: Джон Франкенхаймер
В ролях: Джэррод Эмик, Фредерик Форрест, Тед Марко, Кармен Аргензиано, Джэйс Барток, Фредерик Коффин, Клифф Де Янг, Денис Форест, Джастин Хенри, Тони Хиггинс



Описание:В концентрационном лагере для военнопленных северян содержатся десятки тысяч людей. Об ужасах, происходящих за стенами этой тюрьмы, можно только догадываться. Начальники лагеря пытают заключенных иногда не для того, чтобы выудить какие-то военные тайны, а просто из садизма. Люди содержатся в бараках в ужасающих условиях, пьют грязную воду, а о еде и говорить не приходится. Два солдата армии Севера совершают неудачный побег. После этого им приходится каждый день бороться за свою жизнь. Помимо хозяев лагеря им угрожают такие же военнопленные, как и они, занимающиеся грабежами и убийствами на территории тюрьмы.

Исходник: DVD9 R5
Тип релиза: DVDRip
Контейнер: AVI
Видео:704x400 (1.76:1), 23.976 fps, XviD ~1238 kbps avg, 0.18 bit/pixel
Аудио:#1: 48 kHz, AC3 2.0 ~192.00 kbps avg (RUS)
Аудио:#2: 48 kHz, AC3 2.0 ~192.00 kbps avg (RUS)
Аудио:#3: 48 kHz, AC3 6.0 ~448.00 kbps avg (ENG)
Общее
Полное имя: D:1ААААндерсонвилль.avi
Формат: AVI
Формат/Информация: Audio Video Interleave
Профиль формата: OpenDML
Размер файла: 2,43 Гбайт
Продолжительность: 2 ч. 47 м.
Общий поток: 2077 Кбит/сек
Программа кодирования: VirtualDubMod 1.5.10.2 (build 2540/release)
Библиотека кодирования: VirtualDubMod build 2540/release

Видео
Идентификатор: 0
Формат: MPEG-4 Visual
Профиль формата: Advanced Simple@L5
Параметр BVOP формата: 2
Параметр QPel формата: Нет
Параметр GMC формата: Без точки перехода
Параметр матрицы формата: Default (MPEG)
Режим смешивания: Сжатый битовый поток
Идентификатор кодека: XVID
Идентификатор кодека/Подсказка: XviD
Продолжительность: 2 ч. 47 м.
Битрейт: 1222 Кбит/сек
Ширина: 704 пикселя
Высота: 400 пикселей
Соотношение сторон: 16:9
Частота кадров: 23,976 кадра/сек
Цветовое пространство: YUV
Субдискретизация насыщенности: 4:2:0
Битовая глубина: 8 бит
Тип развёртки: Прогрессивная
Метод сжатия: С потерями
Бит/(Пиксели*Кадры): 0.181
Размер потока: 1,43 Гбайт (59%)
Библиотека кодирования: XviD 1.2.1 (UTC 2008-12-04)

Аудио #1
Идентификатор: 1
Формат: AC-3
Формат/Информация: Audio Coding 3
Расширение режима: CM (complete main)
Параметр Endianness формата: Big
Идентификатор кодека: 2000
Продолжительность: 2 ч. 47 м.
Вид битрейта: Постоянный
Битрейт: 192 Кбит/сек
Каналы: 2 канала
Расположение каналов: Front: L R
Частота: 48,0 КГц
Битовая глубина: 16 бит
Метод сжатия: С потерями
Размер потока: 230 Мбайт (9%)
Выравнивание: Разделение по промежуткам
Продолжительность промежутка: 42мс. (1,00 видеокадр)
Время предзагрузки промежутка: 500мс.

Аудио #2
Идентификатор: 2
Формат: AC-3
Формат/Информация: Audio Coding 3
Расширение режима: CM (complete main)
Параметр Endianness формата: Big
Идентификатор кодека: 2000
Продолжительность: 2 ч. 47 м.
Вид битрейта: Постоянный
Битрейт: 192 Кбит/сек
Каналы: 2 канала
Расположение каналов: Front: L R
Частота: 48,0 КГц
Битовая глубина: 16 бит
Метод сжатия: С потерями
Размер потока: 230 Мбайт (9%)
Выравнивание: Разделение по промежуткам
Продолжительность промежутка: 42мс. (1,00 видеокадр)
Время предзагрузки промежутка: 500мс.

Аудио #3
Идентификатор: 3
Формат: AC-3
Формат/Информация: Audio Coding 3
Расширение режима: CM (complete main)
Параметр Endianness формата: Big
Идентификатор кодека: 2000
Продолжительность: 2 ч. 47 м.
Вид битрейта: Постоянный
Битрейт: 448 Кбит/сек
Каналы: 6 каналов
Расположение каналов: Front: L C R, Side: L R, LFE
Частота: 48,0 КГц
Битовая глубина: 16 бит
Метод сжатия: С потерями
Размер потока: 537 Мбайт (22%)
Выравнивание: Разделение по промежуткам
Продолжительность промежутка: 42мс. (1,00 видеокадр)
Время предзагрузки промежутка: 500мс.





Релиз:




реклама партнёра


Вернуться к началу
 Профиль Отправить личное сообщение  
 
   Похожие торренты   Автор   Торрент   Размер 
В этой теме нет новых непрочитанных сообщений. Карандаш плотника / El lapiz del carpintero (Антон Реикса / Anton Reixa) [2003г., драма, исторический, военный, DVDRip] Sub

Alfredovich

2 | 3

771.69 МБ

В этой теме нет новых непрочитанных сообщений. Не их страна, но их война / Patria / No Man's Land (Клас ван Эйкерен / Klaas van Eijkeren) [2014г., Нидерланды, военный, исторический, драма, DVDRip] Sub

Alfredovich

4 | 2

1.44 ГБ

В этой теме нет новых непрочитанных сообщений. Саги викингов / The Viking Sagas [Боевик, Исторический, Криминал, Приключения, 1996] DVDRip, Mvo

salma3

0 | 3

1.42 ГБ

В этой теме нет новых непрочитанных сообщений. Сучьи войны [01-08 из 08] [Военный, драма, исторический, 2014] SATRip

Dracon

2715 | 273

4.68 ГБ

В этой теме нет новых непрочитанных сообщений. Варшавское восстание / Powstanie Warszawskie (Ян Комаса) [2014, Исторический, военный, DVDRip] avo

Nickolas3435

239 | 20

1.45 ГБ

В этой теме нет новых непрочитанных сообщений. Батальонъ (Дмитрий Месхиев) [Драма, Военный, Исторический, 2015] DVD5 [iTunes]

Dracon

15 | 2

4.23 ГБ

В этой теме нет новых непрочитанных сообщений. Батальонъ (Дмитрий Месхиев) [Драма, Военный, Исторический, 2015] BDRip [Лицензия]

Dracon

2881 | 101

2.18 ГБ


Начать новую тему Ответить на тему  [ 1 сообщение ] 




Для Мосгорсуда, Роскомнадзора и рекламодателей:: mosgorsud-torrent[собачка]yandex.ru