Торрент файл
скачать торрент магнет ссылка Добавлен: 08 май 2013, 18:50
Размер: 1.22 ГБ
Сидеров: 4
Личеров: 3
Статус: (salma3)
Автор

СообщениеДобавлено: 08 май 2013, 18:50 

Не в сети
Супермодератор
Аватара пользователя
Дата регистрации:
15 фев 2012, 16:44
Возраст: 27
Спасибо: 5139 / 2090
Сообщения: 17432

Беззвучный крик / Непередаваемый словами / Unspeakable

Год выхода: 2002
Жанр: ужасы, триллер, детектив
Режиссер: Томас Дж. Райт
В ролях: Деннис Хоппер, Лэнс Хенриксен, Джефф Фэйи, Паван Гроувер, Мишель Фолфф, Марк Волтура, Марко Родригес, Дина Мейер, Мигель Перез, Дж.Д. Гарфилд, Анжело Джармилло, Джордж Майкл Тапия, Одра Уайз, Ким Тружильо, Майкл Крэбтри, Энтони Дилио

О фильме:
За убийство приговаривают к казни на электрическом стуле невиновного человека, в то время как настоящий убийца остаётся на свободе. Психиатр, проверяющий новую технологию снятия "отпечатков пальцев мозга" извлекает из памяти пациента воспоминания чтобы разобраться в преступлении. Постепенно все участники втягиваются в опасную игру в кошки-мышки...



Страна: США
Студия: Pavan Films, Unspeakable Productions
Продолжительность: 01:44:01
Перевод: Авторский одноголосый

Файл
Кодек: DivX
Качество: DVDRip
Видео: DivX, 1479 Кбит/с, 640x352, 25.000 кадр/с
Звук: Русский (AC3, 2 ch, 192 Кбит/с) Авторский одноголосый (Сергей Визгунов)

Семпл






Общее
Полное имя: Bezzvuchnyi.krik.2002.DivX.DVDRip.avi
Формат: AVI
Формат/Информация: Audio Video Interleave
Размер файла: 1,22 Гбайт
Продолжительность: 1 ч. 44 м.
Общий поток: 1681 Кбит/сек
Название фильма: Unspeakable. ripped by DivXMaster
Режиссёр: divxmaster@yandex.ruhttp://mpeg4films.com/http://mpeg4.tk/
Программа кодирования: VirtualDubMod 1.5.4.1 (build 2178/release)
Библиотека кодирования: VirtualDub build 27021/release

Видео
Идентификатор: 0
Формат: MPEG-4 Visual
Параметр BVOP формата: 1
Параметр QPel формата: Нет
Параметр GMC формата: Без точки перехода
Параметр матрицы формата: Default (H.263)
Режим смешивания: Сжатый битовый поток
Идентификатор кодека: DX50
Идентификатор кодека/Подсказка: DivX 5
Продолжительность: 1 ч. 44 м.
Битрейт: 1479 Кбит/сек
Ширина: 640 пикселей
Высота: 352 пикселя
Соотношение сторон: 16:9
Частота кадров: 25,000 кадров/сек
Цветовое пространство: YUV
Субдискретизация насыщенности: 4:2:0
Битовая глубина: 8 бит
Тип развёртки: Прогрессивная
Метод сжатия: С потерями
Бит/(Пиксели*Кадры): 0.263
Размер потока: 1,07 Гбайт (88%)
Библиотека кодирования: DivX 5.1.1 (Maupiti) (UTC 2003-11-19)

Аудио
Идентификатор: 1
Формат: AC-3
Формат/Информация: Audio Coding 3
Расширение режима: CM (complete main)
Параметр Endianness формата: Big
Идентификатор кодека: 2000
Продолжительность: 1 ч. 44 м.
Вид битрейта: Постоянный
Битрейт: 192 Кбит/сек
Каналы: 2 канала
Расположение каналов: Front: L R
Частота: 48,0 КГц
Битовая глубина: 16 бит
Метод сжатия: С потерями
Размер потока: 143 Мбайт (11%)
Выравнивание: Разделение по промежуткам
Продолжительность промежутка: 40мс. (1,00 видеокадр)
Время предзагрузки промежутка: 500мс.




реклама партнёра


Вернуться к началу
 Профиль Отправить личное сообщение  
 
   Похожие торренты   Автор   Торрент   Размер 
В этой теме нет новых непрочитанных сообщений. Уиллоу Крик / Willow Creek [Ужасы, триллер, детектив, приключения, 2013] WEB-DLRip, Avo

salma3

113 | 8

1.37 ГБ

В этой теме нет новых непрочитанных сообщений. Крик. Квадрология / Scream. Quadrilogy (Уэс Крэйвен) [1996, 1997, 1999, 2011, ужасы, триллер, детектив, BDRip]

Dracon

19 | 1

5.47 ГБ

В этой теме нет новых непрочитанных сообщений. Сияние / The Glow [Ужасы, триллер, драма, детектив, 2002] DVDRip, Mvo

salma3

148 | 21

1.46 ГБ

В этой теме нет новых непрочитанных сообщений. Одним глазком / Мой глазик / My Little Eye [триллер, детектив, ужасы, 2002] DVDRip, Mvo

salma3

40 | 4

1.46 ГБ

В этой теме нет новых непрочитанных сообщений. Крик / Scream [01х01-10 из 10] [ужасы, криминал, детектив, 2015] WEB-DLRip, Mvo [LostFilm]

salma3

235 | 179

4.11 ГБ

В этой теме нет новых непрочитанных сообщений. Крик / Scream / 2 сезон 1-10 серия из 10 [ужасы, криминал, детектив, 2016] WEB-DLRip, Mvo [LostFilm]

salma3

124 | 82

6.45 ГБ

В этой теме нет новых непрочитанных сообщений. Крик / Scream [01х01-10 из 10] (Ли Джаньяк, Джулиус Рамсей, Джеми Трэвис) [ужасы, криминал, детектив, 2015] WEB-DL 720p, Mvo [LostFilm]

Dracon

217 | 206

12.25 ГБ


Начать новую тему Ответить на тему  [ 1 сообщение ] 




Для Мосгорсуда, Роскомнадзора и рекламодателей:: mosgorsud-torrent[собачка]yandex.ru